<?xml version="1.0" standalone="no"?>
<!DOCTYPE svg PUBLIC "-//W3C//DTD SVG 1.1//EN" "http://www.w3.org/Graphics/SVG/1.1/DTD/svg11.dtd" >
<svg>
<metadata>
Created by FontForge 20090914 at Fri Jul 27 10:28:38 2012
 By www-data
Copyright `2010 Robey Pointer. Copyright `2009 Apple Inc. Copyright `2006 by Tavmjong Bah. Copyright `2003 by Bitstream, Inc. All Rights Reserved.
</metadata>
<defs>
<font id="Mensch-Regular" horiz-adv-x="1233" >
  <font-face 
    font-family="Mensch"
    font-weight="400"
    font-stretch="normal"
    units-per-em="2048"
    panose-1="2 11 6 9 3 8 4 2 2 4"
    ascent="1556"
    descent="-492"
    x-height="1118"
    cap-height="1493"
    bbox="-703 -767 1470 2133"
    underline-thickness="90"
    underline-position="-85"
    unicode-range="U+0020-U+FFFD"
  />
<missing-glyph 
d="M104 -362v1806h1024v-1806h-1024zM219 -248h795v1577h-795v-1577z" />
    <glyph glyph-name="fi" unicode="fi" 
d="M895 1554h184v-233h-184v233zM776 1556l0.000976562 -153h-180c-66 0 -111.833 -13.5 -137.5 -40.5s-38.5 -74.833 -38.5 -143.5v-101h659v-1118h-184v977h-475v-977h-184v977h-201v143h201v78c0 122.667 28.167 213 84.5 271s144.166 87 263.499 87h192z" />
    <glyph glyph-name="fl" unicode="fl" 
d="M1079 1556l0.000976562 -1556h-184v1403h-299c-66 0 -111.833 -13.5 -137.5 -40.5s-38.5 -74.833 -38.5 -143.5v-101h293v-141h-293v-977h-184v977h-201v143h201v78c0 122.667 28.167 213 84.5 271s144.166 87 263.499 87h495z" />
    <glyph glyph-name=".notdef" 
d="M104 -362v1806h1024v-1806h-1024zM219 -248h795v1577h-795v-1577z" />
    <glyph glyph-name="space" unicode=" " 
 />
    <glyph glyph-name="exclam" unicode="!" 
d="M524 120c0 34 12.5 63.167 37.5 87.5s55.167 36.5 90.5 36.5s65.5 -12.167 90.5 -36.5s37.5 -53.5 37.5 -87.5s-12.5 -63.167 -37.5 -87.5s-55.167 -36.5 -90.5 -36.5s-65.5 12.167 -90.5 36.5s-37.5 53.5 -37.5 87.5zM546 1493h203v-655l-21 -307h-161l-21 307v655z" />
    <glyph glyph-name="quotedbl" unicode="&#x22;" 
d="M945 1547v-612h-224v612h224zM412 1547v-612h-224v612h224z" />
    <glyph glyph-name="numbersign" unicode="#" 
d="M684 1465l-90 -354h245l91 354h160l-91 -354h244v-153h-281l-98 -393h250v-153h-289l-104 -412h-160l105 412h-246l-105 -412h-159l104 412h-258v153h297l98 393h-266v153h303l90 354h160zM802 958h-245l-98 -393h246z" />
    <glyph glyph-name="dollar" unicode="$" 
d="M692 580v-434.001c73.333 2 130.666 22.333 171.999 61s62 91.334 62 158.001c0 62 -18.667 110.167 -56 144.5s-96.666 57.833 -177.999 70.5zM592 769.999v412.998c-69.333 -2.66699 -123.5 -22.667 -162.5 -60s-58.5 -87.333 -58.5 -150
c0 -57.333 18.167 -102.666 54.5 -135.999s91.833 -55.666 166.5 -66.999zM692 -301.003l-100 0.00292969l-1 301c-68 3.33301 -135.5 12.666 -202.5 27.999s-133.167 36.666 -198.5 63.999v180c66.667 -41.333 133.834 -73 201.501 -95s134.5 -33.667 200.5 -35v458
c-133.333 20.667 -233.666 61.334 -300.999 122.001s-101 141 -101 241c0 104.667 35.167 188.167 105.5 250.5s169.166 98.166 296.499 107.499v235h100l1 -235c52.667 -3.33301 106 -10 160 -20s109 -23.667 165 -41v-173c-56.667 28.667 -111.834 50.834 -165.501 66.501
s-107.167 24.834 -160.5 27.501v-431c137.333 -20.667 242 -63.334 314 -128.001s108 -148.334 108 -251.001s-38.833 -188.334 -116.5 -257.001s-179.167 -106 -304.5 -112z" />
    <glyph glyph-name="percent" unicode="%" 
d="M696 319c0 -52 17.5 -95.667 52.5 -131s78.5 -53 130.5 -53c51.333 0 94.833 17.833 130.5 53.5s53.5 79.167 53.5 130.5s-18 95 -54 131s-79.333 54 -130 54c-52 0 -95.5 -17.667 -130.5 -53s-52.5 -79.333 -52.5 -132zM561 319c0 90 30.668 165.833 92.001 227.5
s136.666 92.5 225.999 92.5c42.667 0 83.167 -8 121.5 -24s72.833 -39.333 103.5 -70c30.667 -31.333 54.334 -66.333 71.001 -105s25 -79 25 -121c0 -88.667 -31 -164 -93 -226s-138 -93 -228 -93c-90.667 0 -166.334 30.5 -227.001 91.5s-91 136.833 -91 227.5z
M83.001 440l-44 113l1115 446l50 -113zM168.001 1112c0 -52.667 17.5 -96.5 52.5 -131.5s78.833 -52.5 131.5 -52.5c51.333 0 95 17.833 131 53.5s54 79.167 54 130.5s-18 94.833 -54 130.5s-79.667 53.5 -131 53.5s-94.833 -17.667 -130.5 -53s-53.5 -79 -53.5 -131z
M33.001 1112c0 90 30.667 165.833 92 227.5s137 92.5 227 92.5c42.667 0 83.5 -8 122.5 -24s73.5 -39 103.5 -69s53.167 -64.5 69.5 -103.5s24.5 -80.167 24.5 -123.5c0 -89.333 -31 -164.833 -93 -226.5s-137.667 -92.5 -227 -92.5c-90 0 -165.667 30.667 -227 92
s-92 137 -92 227z" />
    <glyph glyph-name="ampersand" unicode="&#x26;" 
d="M748 964l-152.001 -134.999l367 -481c26 32.667 45.333 74 58 124s19 109.667 19 179c0 21.333 -1 55.333 -3 102l-1 7h164v-39c0 -107.333 -12.333 -201.5 -37 -282.5s-62 -150.833 -112 -209.5l170 -229h-213l-78 109c-55.333 -46.667 -114 -81.334 -176 -104.001
s-128.333 -34 -199 -34c-144 0 -263 44.833 -357 134.5s-141 202.5 -141 338.5c0 91.333 26.5 169.5 79.5 234.5s130.167 128.167 231.5 189.5c-33.333 48 -63.666 102.833 -90.999 164.5s-41 116.167 -41 163.5c0 97.333 33.333 176.333 100 237
c63.333 58 134 85.667 212 83c92 -3.33301 159.333 -22 202 -56c47.333 -26 77.333 -56.667 90 -92c26 -72.667 31.333 -142 16 -208c-12.667 -54.667 -48.667 -120 -108 -196zM507.999 960.001l124 124c58 56 78 116 60 180c-20 61.333 -64 92 -132 92
c-34 0 -64.667 -12 -92 -36c-43.333 -37.333 -62 -78 -56 -122c6.66699 -46 16 -81.333 28 -106zM459.999 744.001l-159.501 -125.002c-45 -34.667 -67.5 -82.667 -67.5 -144c0 -100.667 33.333 -184.167 100 -250.5s151.667 -99.5 255 -99.5c28 0 57.333 4 88 12
c34 8.66699 64 20.334 90 35.001c18 10 32.833 18.833 44.5 26.5s22.834 15.834 33.501 24.501z" />
    <glyph glyph-name="quotesingle" unicode="'" 
d="M742 1558v-623h-224v623h224z" />
    <glyph glyph-name="parenleft" unicode="(" 
d="M855 1654c-88.667 -152 -154.834 -303.501 -198.501 -454.501s-65.5 -303.167 -65.5 -456.5c0 -152.667 21.833 -304.667 65.5 -456s109.834 -303.666 198.501 -456.999h-160c-100.667 158.667 -175.667 313.167 -225 463.5s-74 300.166 -74 449.499
c0 148.667 24.667 298.334 74 449.001s124.333 304.667 225 462h160z" />
    <glyph glyph-name="parenright" unicode=")" 
d="M348 1654l160 0.00195312c100.667 -157.333 175.667 -311.333 225 -462s74 -300.334 74 -449.001c0 -150 -24.667 -300.333 -74 -451s-124.333 -304.667 -225 -462h-160c88.667 154.667 154.834 307.667 198.501 459s65.5 302.666 65.5 453.999
c0 152 -21.833 303.667 -65.5 455s-109.834 303.333 -198.501 456z" />
    <glyph glyph-name="asterisk" unicode="*" 
d="M1179 871l-444 -240l444 -241l-70 -122l-418 251v-466h-143v466l-418 -251l-70 122l445 241l-445 240l70 123l418 -251v466h143v-466l418 251z" />
    <glyph glyph-name="plus" unicode="+" 
d="M720 1178v-443h445v-169h-445v-443h-168v443h-444v169h444v443h168z" />
    <glyph glyph-name="comma" unicode="," 
d="M442 361h312v-265l-222 -431l-200 -1l110 432v265z" />
    <glyph glyph-name="hyphen" unicode="-" 
d="M102 724h1060v-169h-1060v169z" />
    <glyph glyph-name="period" unicode="." 
d="M389 404h352v-404h-352v404z" />
    <glyph glyph-name="slash" unicode="/" 
d="M889 1493h190l-786 -1683h-191z" />
    <glyph glyph-name="zero" unicode="0" 
d="M504 740c0 32 11.333 59.333 34 82s50 34 82 34s59.333 -11.333 82 -34s34 -50 34 -82s-11.333 -59.333 -34 -82s-50 -34 -82 -34s-59.333 11.333 -82 34s-34 50 -34 82zM616 1515c159.333 0 279.833 -65 361.5 -195s122.5 -322.333 122.5 -577s-40.833 -447 -122.5 -577
s-202.167 -195 -361.5 -195s-279.666 65 -360.999 195s-122 322.333 -122 577s40.667 447 122 577s201.666 195 360.999 195zM616 131c94.667 0 165.167 50.333 211.5 151s69.5 254.334 69.5 461.001c0 408 -93.667 612 -281 612c-94 0 -164.167 -50.333 -210.5 -151
s-69.5 -254.334 -69.5 -461.001c0 -408 93.333 -612 280 -612z" />
    <glyph glyph-name="one" unicode="1" 
d="M584 0v1225l-264 -285v266l262 282h202v-1488h-200z" />
    <glyph glyph-name="two" unicode="2" 
d="M373 170l686.004 0.000976562v-170h-907v170l327 348c93.333 100.667 157.666 171.667 192.999 213c66.667 81.333 111.667 147.166 135 197.499s35 101.833 35 154.5c0 83.333 -24.5 148.666 -73.5 195.999s-116.167 71 -201.5 71c-60.667 0 -124.334 -11 -191.001 -33
s-137.334 -55.333 -212.001 -100v204c68.667 32.667 136.167 57.334 202.5 74.001s131.833 25 196.5 25c146 0 263.5 -38.833 352.5 -116.5s133.5 -179.5 133.5 -305.5c0 -64 -14.833 -128 -44.5 -192s-77.834 -134.667 -144.501 -212l-162.5 -180z" />
    <glyph glyph-name="three" unicode="3" 
d="M940 96c-110 -98 -258.001 -135.332 -444.001 -111.999c-111.333 14 -228.666 63 -351.999 147v201c159.333 -100.667 251.333 -154 276 -160c160.667 -36.667 279.334 -16.667 356.001 60c99.333 100 118 242.667 56 428c-34.667 102.667 -135.334 154 -302.001 154
h-154v166l428 360l-624 2v170l864 8v-192l-396 -352c80.667 2 140.667 -8.66699 180 -32c57.333 -34.667 105.333 -78.667 144 -132c56.667 -78 88.667 -166 96 -264c16.667 -210.667 -26 -361.334 -128 -452.001z" />
    <glyph glyph-name="four" unicode="4" 
d="M735 1309l-471 -789h471v789zM702 1493h234v-973h199v-164h-199v-356h-201v356h-633v191z" />
    <glyph glyph-name="five" unicode="5" 
d="M207 1493l755.999 -0.000976562v-170h-572v-367c28.667 10.667 57.5 18.5 86.5 23.5s58.167 7.5 87.5 7.5c154.667 0 277.334 -45.667 368.001 -137s136 -215 136 -371c0 -157.333 -47.5 -281.333 -142.5 -372s-224.833 -136 -389.5 -136
c-79.333 0 -151.833 5.33301 -217.5 16s-124.5 26.667 -176.5 48v205c61.333 -33.333 123 -58.166 185 -74.499s125.333 -24.5 190 -24.5c111.333 0 197.166 29.333 257.499 88s90.5 142 90.5 250c0 106.667 -31.167 189.667 -93.5 249s-149.166 89 -260.499 89
c-54 0 -106.667 -6.16699 -158 -18.5s-100.333 -30.833 -147 -55.5v750z" />
    <glyph glyph-name="six" unicode="6" 
d="M991 1460l-0.000976562 -186.002c-42 24.667 -86.667 43.5 -134 56.5s-96.666 19.5 -147.999 19.5c-128 0 -225 -48.167 -291 -144.5s-99 -238.166 -99 -425.499c32 66.667 76.333 117.834 133 153.501s121.667 53.5 195 53.5c144 0 255.5 -44.167 334.5 -132.5
s118.5 -213.5 118.5 -375.5c0 -161.333 -40.667 -286.333 -122 -375s-195.666 -133 -342.999 -133c-173.333 0 -300.333 62.167 -381 186.5s-121 320.166 -121 587.499c0 252 48.5 444.167 145.5 576.5s237.5 198.5 421.5 198.5c49.333 0 98.666 -5.16699 147.999 -15.5
s97 -25.166 143 -44.499zM630.999 828.998c-86 0 -153.667 -31 -203 -93s-74 -147.667 -74 -257s24.667 -195 74 -257s117 -93 203 -93c89.333 0 156.666 29.5 201.999 88.5s68 146.167 68 261.5c0 116 -22.667 203.333 -68 262s-112.666 88 -201.999 88z" />
    <glyph glyph-name="seven" unicode="7" 
d="M139 1493h940v-86l-534 -1407h-211l520 1323h-715v170z" />
    <glyph glyph-name="eight" unicode="8" 
d="M616 709c-90 0 -159.501 -25.166 -208.501 -75.499s-73.5 -121.5 -73.5 -213.5s24.833 -163.5 74.5 -214.5s118.834 -76.5 207.501 -76.5c90.667 0 160.5 25.167 209.5 75.5s73.5 122.166 73.5 215.499c0 91.333 -24.833 162.333 -74.5 213s-119.167 76 -208.5 76z
M439.999 793.001c-86 22 -153.168 63 -201.501 123s-72.5 132.333 -72.5 217c0 118.667 40.333 212.834 121 282.501s190.334 104.5 329.001 104.5c139.333 0 249.333 -34.833 330 -104.5s121 -163.834 121 -282.501c0 -84.667 -24.167 -157 -72.5 -217
s-115.5 -101 -201.5 -123c100 -22 176.5 -66.333 229.5 -133s79.5 -153 79.5 -259c0 -134.667 -43 -240 -129 -316s-205 -114 -357 -114s-270.833 37.833 -356.5 113.5s-128.5 180.5 -128.5 314.5c0 106.667 26.5 193.5 79.5 260.5s129.5 111.5 229.5 133.5zM366.998 1114
c0 -80 21.333 -141 64 -183s104.334 -63 185.001 -63c81.333 0 143.333 21 186 63s64 103 64 183c0 81.333 -21.167 143.333 -63.5 186s-104.5 64 -186.5 64c-80.667 0 -142.334 -21.5 -185.001 -64.5s-64 -104.833 -64 -185.5z" />
    <glyph glyph-name="nine" unicode="9" 
d="M596 662c86 0 153.499 31 202.499 93s73.5 147.667 73.5 257s-24.5 195 -73.5 257s-116.5 93 -202.5 93c-89.333 0 -156.666 -29.5 -201.999 -88.5s-68 -146.167 -68 -261.5c0 -116 22.5 -203.333 67.5 -262s112.5 -88 202.5 -88zM235.999 31l0.000976562 186.001
c42 -24.667 86.667 -43.5 134 -56.5s96.666 -19.5 147.999 -19.5c128 0 224.833 48.167 290.5 144.5s98.5 238.166 98.5 425.499c-31.333 -66.667 -75.333 -117.834 -132 -153.501s-121.667 -53.5 -195 -53.5c-144 0 -255.5 44.333 -334.5 133
s-118.5 214.334 -118.5 377.001c0 160.667 40.5 285.167 121.5 373.5s195.5 132.5 343.5 132.5c173.333 0 300.333 -62.333 381 -187s121 -320.667 121 -588c0 -251.333 -48.5 -443.166 -145.5 -575.499s-237.833 -198.5 -422.5 -198.5c-48.667 0 -97.667 5.16699 -147 15.5
s-97 25.166 -143 44.499z" />
    <glyph glyph-name="colon" unicode=":" 
d="M429 1119h312v-361h-312v361zM429 364h312v-364h-312v364z" />
    <glyph glyph-name="semicolon" unicode=";" 
d="M442 361h312v-265l-197 -382h-214l99 382v265zM429 1119h312v-361h-312v361z" />
    <glyph glyph-name="less" unicode="&#x3c;" 
d="M1132 1478l-825 -710l821 -777v-183l-1028 878v166l1032 808v-182z" />
    <glyph glyph-name="equal" unicode="=" 
d="M88 500h1057v-169h-1057v169zM88 971h1057v-169h-1057v169z" />
    <glyph glyph-name="greater" unicode="&#x3e;" 
d="M100 1478v182l1032 -802v-166l-1032 -884v183l825 783z" />
    <glyph glyph-name="question" unicode="?" 
d="M468 124c0 34 12.833 63.167 38.5 87.5s56.834 36.5 93.501 36.5s67.834 -12.167 93.501 -36.5s38.5 -53.5 38.5 -87.5s-12.833 -63.167 -38.5 -87.5s-56.834 -36.5 -93.501 -36.5s-67.834 12.167 -93.501 36.5s-38.5 53.5 -38.5 87.5zM688 432h-190.001l-4 123
c-2 60.667 8 116.334 30 167.001c20 44 58.333 94 115 150l90 89c41.333 39.333 69.833 73.666 85.5 102.999s23.5 60.333 23.5 93c0 59.333 -21.833 107.333 -65.5 144s-101.834 55 -174.501 55c-52 0 -107.667 -11.5 -167 -34.5s-121.666 -57.167 -186.999 -102.5v188
c62.667 38 125.834 66.333 189.501 85s130.167 28 199.5 28c124 0 222.833 -32 296.5 -96s110.5 -149.667 110.5 -257c0 -50.667 -11.333 -97.667 -34 -141c-22 -44 -64.333 -96.667 -127 -158l-88 -86c-46 -44 -75.333 -80 -88 -108s-19 -62.333 -19 -103v-47z" />
    <glyph glyph-name="at" unicode="@" 
d="M1038 545c0 86 -21.333 154.833 -64 206.5s-99.667 77.5 -171 77.5s-128.5 -25.833 -171.5 -77.5s-64.5 -120.5 -64.5 -206.5c0 -86.667 21.5 -155.834 64.5 -207.501s100.167 -77.5 171.5 -77.5s128.333 25.833 171 77.5s64 120.834 64 207.501zM1178 135
l-143.996 -0.000976562v111c-24.667 -42 -58.834 -74.333 -102.501 -97s-92.834 -34 -147.501 -34c-107.333 0 -196.166 40.333 -266.499 121s-105.5 183.667 -105.5 309s35.167 228.333 105.5 309s159.166 121 266.499 121c53.333 0 102.333 -11.667 147 -35
s79 -55.333 103 -96v63c0 104 -29.333 187.667 -88 251s-136.334 95 -233.001 95c-164 0 -294.5 -63.833 -391.5 -191.5s-145.5 -300.5 -145.5 -518.5c0 -219.333 55 -394 165 -524s260.667 -195.333 452 -196c36 -5.33301 86.667 -8 152 -8s123.666 1.33301 174.999 4v-144
c-43.333 -3.33301 -99.166 -5.16602 -167.499 -5.49902s-121.5 2.5 -159.5 8.5c-231.333 2 -416.833 80.667 -556.5 236s-209.5 365 -209.5 629c0 260 62.667 467 188 621s293.333 231 504 231c139.333 0 250.666 -44.333 333.999 -133s125 -207.667 125 -357v-770z" />
    <glyph glyph-name="A" unicode="A" 
d="M616 1315l-213 -764h426zM494 1493h245l457 -1493h-209l-110 389h-523l-108 -389h-209z" />
    <glyph glyph-name="B" unicode="B" 
d="M369 753v-587h239c117.333 0 201 20.5 251 61.5s75 108.5 75 202.5c0 124 -26.333 208.833 -79 254.5s-135 68.5 -247 68.5h-239zM369 1327v-409.999h235c97.333 0 167.833 18.667 211.5 56s65.5 84.333 65.5 141c0 75.333 -21.5 129.666 -64.5 162.999
s-113.833 50 -212.5 50h-235zM166 1493l441.999 0.000976562c152.667 0 270.334 -33 353.001 -99s124 -159.333 124 -280c0 -64.667 -21.833 -123.334 -65.5 -176.001s-109.167 -85.667 -196.5 -99c98 -14.667 174.833 -56.5 230.5 -125.5s83.5 -170.167 83.5 -303.5
c0 -135.333 -44.333 -237.5 -133 -306.5s-220.667 -103.5 -396 -103.5h-442v1493z" />
    <glyph glyph-name="C" unicode="C" 
d="M1073 53c-51.333 -27.333 -104 -47.832 -158 -61.499s-111.333 -20.5 -172 -20.5c-191.333 0 -339.833 67.667 -445.5 203s-158.5 325.666 -158.5 570.999c0 244 53.167 434.167 159.5 570.5s254.5 204.5 444.5 204.5c60.667 0 118 -6.83301 172 -20.5
s106.667 -34.167 158 -61.5v-207c-49.333 40.667 -102.333 71.667 -159 93s-113.667 32 -171 32c-131.333 0 -229.666 -50.667 -294.999 -152s-98 -254.333 -98 -459c0 -204 32.667 -356.667 98 -458s163.666 -152 294.999 -152c58.667 0 116.167 10.667 172.5 32
s108.833 52.333 157.5 93v-207z" />
    <glyph glyph-name="D" unicode="D" 
d="M436 166c170 0 288.667 41.8311 356 125.498s101 234.834 101 453.501c0 220.667 -33.5 372.834 -100.5 456.501s-185.833 125.5 -356.5 125.5h-96v-1161h96zM440 1493c228 0 396 -60.667 504 -182s162 -310 162 -566c0 -254.667 -54 -442.5 -162 -563.5
s-276 -181.5 -504 -181.5h-303v1493h303z" />
    <glyph glyph-name="E" unicode="E" 
d="M197 1493h886v-170h-684v-402h654v-170h-654v-581h703v-170h-905v1493z" />
    <glyph glyph-name="F" unicode="F" 
d="M233 1493h879v-170h-676v-400h613v-170h-613v-753h-203v1493z" />
    <glyph glyph-name="G" unicode="G" 
d="M1104 123c-54 -50 -114.833 -87.833 -182.5 -113.5s-140.834 -38.5 -219.501 -38.5c-189.333 0 -336.666 67.833 -441.999 203.5s-158 325.834 -158 570.501c0 244 53.333 434.167 160 570.5s255 204.5 445 204.5c62.667 0 122.667 -8.83301 180 -26.5
s112.666 -44.5 165.999 -80.5v-207c-54 51.333 -109.333 89.166 -166 113.499s-116.667 36.5 -180 36.5c-131.333 0 -229.833 -50.833 -295.5 -152.5s-98.5 -254.5 -98.5 -458.5c0 -207.333 31.833 -360.833 95.5 -460.5s161.5 -149.5 293.5 -149.5
c44.667 0 83.834 5.16699 117.501 15.5s64.167 26.5 91.5 48.5v401h-217v166h410v-643z" />
    <glyph glyph-name="H" unicode="H" 
d="M137 1493h203v-572h553v572h203v-1493h-203v751h-553v-751h-203v1493z" />
    <glyph glyph-name="I" unicode="I" 
d="M201 1493h829v-170h-313v-1153h313v-170h-829v170h313v1153h-313v170z" />
    <glyph glyph-name="J" unicode="J" 
d="M109 61l-0.000976562 235.999c60.667 -54 123.334 -94.5 188.001 -121.5s131.667 -40.5 201 -40.5c95.333 0 161.833 24.833 199.5 74.5s56.5 142.167 56.5 277.5v836h-381v170h583v-1006c0 -188 -35.167 -321 -105.5 -399s-187.833 -117 -352.5 -117
c-64 0 -127.667 7.33301 -191 22s-129.333 37.334 -198 68.001z" />
    <glyph glyph-name="K" unicode="K" 
d="M137 1493h203v-664l631 664h237l-581 -610l598 -883h-244l-487 748l-154 -164v-584h-203v1493z" />
    <glyph glyph-name="L" unicode="L" 
d="M215 1493h203v-1323h721v-170h-924v1493z" />
    <glyph glyph-name="M" unicode="M" 
d="M36 1488h270l258 -758l260 758h271v-1488h-187v1315l-266 -784h-153l-267 784v-1315h-186v1488z" />
    <glyph glyph-name="N" unicode="N" 
d="M19 1488h276l584 -1225v1225h215v-1488h-276l-584 1225v-1225h-215v1488z" />
    <glyph glyph-name="O" unicode="O" 
d="M905 745c0 219.333 -22.5 376 -67.5 470s-118.833 141 -221.5 141c-102 0 -175.5 -47 -220.5 -141s-67.5 -250.667 -67.5 -470c0 -218.667 22.5 -375 67.5 -469s118.5 -141 220.5 -141c102.667 0 176.5 46.833 221.5 140.5s67.5 250.167 67.5 469.5zM1116 745
c0 -260 -41.167 -453.999 -123.5 -581.999s-207.833 -192 -376.5 -192s-294 63.667 -376 191s-123 321.666 -123 582.999c0 260.667 41.167 455 123.5 583s207.5 192 375.5 192c168.667 0 294.167 -64 376.5 -192s123.5 -322.333 123.5 -583z" />
    <glyph glyph-name="P" unicode="P" 
d="M399 1327l0.000976562 -561h234c93.333 0 166.166 24.667 218.499 74s78.5 118.333 78.5 207s-26 157.5 -78 206.5s-125 73.5 -219 73.5h-234zM197.001 1493l436 -0.000976562c166.667 0 293 -37.833 379 -113.5s129 -186.5 129 -332.5
c0 -147.333 -42.833 -258.666 -128.5 -333.999s-212.167 -113 -379.5 -113h-234v-600h-202v1493z" />
    <glyph glyph-name="Q" unicode="Q" 
d="M696 456l142.001 -180.001c45.333 77.333 67.666 233.666 66.999 468.999c-0.666992 228.667 -23 385.334 -67 470.001c-47.333 94 -121.333 141 -222 141c-102 0 -175.5 -47 -220.5 -141s-67.5 -250.667 -67.5 -470c0 -218.667 22.667 -375 68 -469
c44.667 -94 113 -141 205 -141h15c52 2.66699 78 7.33398 78 14.001c0 0.666992 -0.666992 1.66699 -2 3l-228 304h232zM788.001 15.999c-14 -14 -38 -24.667 -72 -32c-40.667 -8.66699 -73 -13 -97 -13h-5c-170.667 6.66699 -295.334 70.667 -374.001 192
c-82 127.333 -123 321.333 -123 582s41.167 455 123.5 583s207.5 192 375.5 192c168.667 0 294.167 -64 376.5 -192s123.5 -322.333 123.5 -583c0 -196 -14.667 -335.833 -44 -419.5s-74.666 -152.167 -135.999 -205.5l204 -288h-228z" />
    <glyph glyph-name="R" unicode="R" 
d="M760 705c52 -13.333 96.332 -38.5 132.999 -75.5s82.334 -110.833 137.001 -221.5l203 -408h-217l-178 377c-51.333 107.333 -97.5 176.5 -138.5 207.5s-94.5 46.5 -160.5 46.5h-193v-631h-203v1493h416c164 0 289.667 -37 377 -111s131 -181 131 -321
c0 -98.667 -26.833 -179.167 -80.5 -241.5s-129.167 -100.5 -226.5 -114.5zM345.999 1327v-529.999h221c96.667 0 168.667 21.667 216 65s71 109.666 71 198.999c0 86 -25.167 151.833 -75.5 197.5s-123.5 68.5 -219.5 68.5h-213z" />
    <glyph glyph-name="S" unicode="S" 
d="M1012 1442l0.00292969 -204.997c-61.333 39.333 -122.833 69 -184.5 89s-123.834 30 -186.501 30c-95.333 0 -170.666 -22.167 -225.999 -66.5s-83 -104.166 -83 -179.499c0 -66 18.167 -116.333 54.5 -151s104.166 -63.667 203.499 -87l106 -24
c140 -32.667 242 -84 306 -154s96 -165.333 96 -286c0 -142 -44 -250.333 -132 -325s-216 -112 -384 -112c-70 0 -140.333 7.5 -211 22.5s-141.667 37.5 -213 67.5v215c76.667 -48.667 149.167 -84.334 217.5 -107.001s137.166 -34 206.499 -34
c102 0 181.333 22.833 238 68.5s85 109.5 85 191.5c0 74.667 -19.5 131.667 -58.5 171s-106.833 69.666 -203.5 90.999l-108 25c-138.667 31.333 -239.334 78.666 -302.001 141.999s-94 148.333 -94 255c0 133.333 44.833 240.166 134.5 320.499
s208.834 120.5 357.501 120.5c57.333 0 117.666 -6.5 180.999 -19.5s130 -32.5 200 -58.5z" />
    <glyph glyph-name="T" unicode="T" 
d="M47 1493h1139v-170h-467v-1323h-203v1323h-469v170z" />
    <glyph glyph-name="U" unicode="U" 
d="M147 573l0.00390625 919.998h203v-1012c0 -72.667 2 -124.5 6 -155.5s11 -54.833 21 -71.5c21.333 -39.333 52.166 -69 92.499 -89s89.166 -30 146.499 -30c58 0 107 10 147 30s71 49.667 93 89c10 16.667 17 40.334 21 71.001s6 82 6 154v1014h202v-920
c0 -152.667 -9.5 -261.167 -28.5 -325.5s-51.833 -117.5 -98.5 -159.5c-44 -39.333 -94.333 -68.666 -151 -87.999s-120.334 -29 -191.001 -29c-70 0 -133.333 9.66699 -190 29s-107.334 48.666 -152.001 87.999c-46 41.333 -78.667 94.833 -98 160.5
s-29 173.834 -29 324.501z" />
    <glyph glyph-name="V" unicode="V" 
d="M616 170l351 1323h209l-437 -1493h-245l-437 1493h209z" />
    <glyph glyph-name="W" unicode="W" 
d="M0 1493h197l143 -1212l170 802h211l172 -804l143 1214h197l-223 -1493h-191l-203 887l-202 -887h-191z" />
    <glyph glyph-name="X" unicode="X" 
d="M86 1493h217l328 -563l334 563h217l-447 -702l479 -791h-217l-366 643l-395 -643h-218l500 791z" />
    <glyph glyph-name="Y" unicode="Y" 
d="M37 1493h215l364 -659l363 659h217l-479 -823v-670h-203v670z" />
    <glyph glyph-name="Z" unicode="Z" 
d="M178 1493h969v-154l-780 -1169h802v-170h-1013v154l759 1169h-737v170z" />
    <glyph glyph-name="bracketleft" unicode="[" 
d="M563 1656h424v-143h-240v-1540h240v-143h-424v1826z" />
    <glyph glyph-name="backslash" unicode="\" 
d="M293 1493l786 -1683h-190l-787 1683h191z" />
    <glyph glyph-name="bracketright" unicode="]" 
d="M720 1656v-1826h-424v143h240v1540h-240v143h424z" />
    <glyph glyph-name="asciicircum" unicode="^" 
d="M705 1488l491 -596l-213 1l-367 393l-366 -393l-214 -1l492 596h177z" />
    <glyph glyph-name="underscore" unicode="_" 
d="M1224 -190v-170h-1224v170h1224z" />
    <glyph glyph-name="grave" unicode="`" 
d="M477 1638l281 -376h-154l-325 376h198z" />
    <glyph glyph-name="a" unicode="a" 
d="M702 563h-61.001c-107.333 0 -188.166 -18.833 -242.499 -56.5s-81.5 -93.834 -81.5 -168.501c0 -67.333 20.333 -119.666 61 -156.999s97 -56 169 -56c101.333 0 181 35.167 239 105.5s87.333 167.5 88 291.5v41h-172zM1059 639l-0.000976562 -638.999h-185v166
c-39.333 -66.667 -88.833 -115.834 -148.5 -147.501s-132.167 -47.5 -217.5 -47.5c-114 0 -205 32.167 -273 96.5s-102 150.5 -102 258.5c0 124.667 41.833 219.334 125.5 284.001s206.5 97 368.5 97h247v29c-0.666992 89.333 -23.334 154.166 -68.001 194.499
s-116 60.5 -214 60.5c-62.667 0 -126 -9 -190 -27s-126.333 -44.333 -187 -79v184c68 26 133.167 45.5 195.5 58.5s122.833 19.5 181.5 19.5c92.667 0 171.834 -13.667 237.501 -41s118.834 -68.333 159.501 -123c25.333 -33.333 43.333 -74.5 54 -123.5
s16 -122.5 16 -220.5z" />
    <glyph glyph-name="b" unicode="b" 
d="M918 559c0 142.667 -22.667 250.331 -68 322.998s-112.333 109 -201 109c-89.333 0 -157 -36.5 -203 -109.5s-69 -180.5 -69 -322.5c0 -141.333 23 -248.666 69 -321.999s113.667 -110 203 -110c88.667 0 155.667 36.333 201 109s68 180.334 68 323.001zM377 976.997
c29.333 54.667 69.833 96.667 121.5 126s111.5 44 179.5 44c134.667 0 240.667 -51.833 318 -155.5s116 -246.5 116 -428.5c0 -184.667 -38.833 -329.5 -116.5 -434.5s-184.167 -157.5 -319.5 -157.5c-66.667 0 -125.5 14.5 -176.5 43.5s-91.833 71.167 -122.5 126.5v-141
h-184v1556h184v-579z" />
    <glyph glyph-name="c" unicode="c" 
d="M1061 57c-49.333 -28.667 -100.167 -50.165 -152.5 -64.498s-105.833 -21.5 -160.5 -21.5c-173.333 0 -308.833 52 -406.5 156s-146.5 248 -146.5 432s48.833 328 146.5 432s233.167 156 406.5 156c54 0 106.667 -7 158 -21s103 -35.667 155 -65v-193
c-48.667 43.333 -97.5 74.666 -146.5 93.999s-104.5 29 -166.5 29c-115.333 0 -204 -37.333 -266 -112s-93 -181.334 -93 -320.001c0 -138 31.167 -244.5 93.5 -319.5s150.833 -112.5 265.5 -112.5c64 0 121.333 9.83301 172 29.5s97.667 50.167 141 91.5v-191z" />
    <glyph glyph-name="d" unicode="d" 
d="M858 977l0.00195312 579h184v-1556h-184v141c-30.667 -55.333 -71.5 -97.5 -122.5 -126.5s-109.833 -43.5 -176.5 -43.5c-135.333 0 -241.833 52.5 -319.5 157.5s-116.5 249.833 -116.5 434.5c0 182 39 324.833 117 428.5s184.333 155.5 319 155.5
c67.333 0 126.666 -14.5 177.999 -43.5s91.666 -71.167 120.999 -126.5zM317.002 559c0 -142.667 22.667 -250.331 68 -322.998s112.333 -109 201 -109s156.167 36.667 202.5 110s69.5 180.666 69.5 321.999c0 142 -23.167 249.5 -69.5 322.5s-113.833 109.5 -202.5 109.5
s-155.667 -36.333 -201 -109s-68 -180.334 -68 -323.001z" />
    <glyph glyph-name="e" unicode="e" 
d="M1120 652v-89.998h-797v-6c-5.33301 -152.667 23.834 -262.334 87.501 -329.001s153.5 -100 269.5 -100c58.667 0 120 9.33301 184 28s132.333 47 205 85v-183c-70 -28.667 -137.5 -50.167 -202.5 -64.5s-127.833 -21.5 -188.5 -21.5c-174 0 -310 52.167 -408 156.5
s-147 248.166 -147 431.499c0 178.667 48 321.334 144 428.001s224 160 384 160c142.667 0 255.167 -48.333 337.5 -145s126.166 -213.334 131.499 -350.001zM936 706.002c-8 77.333 -36.168 144.167 -84.501 200.5s-117.833 84.5 -208.5 84.5
c-88.667 0 -161.667 -29.333 -219 -88s-88.666 -124.667 -93.999 -198z" />
    <glyph glyph-name="f" unicode="f" 
d="M1063 1556l0.000976562 -153h-209c-66 0 -111.833 -13.5 -137.5 -40.5s-38.5 -74.833 -38.5 -143.5v-99h385v-143h-385v-977h-184v977h-299v143h299v78c0 122.667 28.167 213 84.5 271s144.166 87 263.499 87h221z" />
    <glyph glyph-name="g" unicode="g" 
d="M858 569c0 138 -22.501 242.833 -67.501 314.5s-110.5 107.5 -196.5 107.5c-90 0 -158.667 -35.833 -206 -107.5s-71 -176.5 -71 -314.5s23.833 -243.167 71.5 -315.5s116.834 -108.5 207.501 -108.5c84.667 0 149.5 36.333 194.5 109s67.5 177.667 67.5 315zM1042 72
c0 -168 -39.665 -295.331 -118.998 -381.998s-196 -130 -350 -130c-50.667 0 -103.667 4.66699 -159 14s-110.666 23 -165.999 41v182c65.333 -30.667 124.666 -53.334 177.999 -68.001s102.333 -22 147 -22c99.333 0 171.666 27 216.999 81s68 139.667 68 257v8v125
c-29.333 -62.667 -69.333 -109.334 -120 -140.001s-112.334 -46 -185.001 -46c-130.667 0 -235 52.333 -313 157s-117 244.667 -117 420c0 176 39 316.333 117 421s182.333 157 313 157c72 0 133 -14.333 183 -43s90.667 -73 122 -133v145h184v-1044z" />
    <glyph glyph-name="h" unicode="h" 
d="M1051 694l-0.000976562 -694h-185v694c0 100.667 -17.667 174.667 -53 222s-90.666 71 -165.999 71c-86 0 -152.167 -30.5 -198.5 -91.5s-69.5 -148.5 -69.5 -262.5v-633h-184v1556h184v-604c32.667 64 77 112.5 133 145.5s122.333 49.5 199 49.5
c114 0 199.167 -37.5 255.5 -112.5s84.5 -188.5 84.5 -340.5z" />
    <glyph glyph-name="i" unicode="i" 
d="M548 1424c0 36.667 12.833 67.834 38.5 93.501s56.834 38.5 93.501 38.5s67.834 -12.833 93.501 -38.5s38.5 -56.834 38.5 -93.501s-12.833 -67.834 -38.5 -93.501s-56.834 -38.5 -93.501 -38.5s-67.834 12.833 -93.501 38.5s-38.5 56.834 -38.5 93.501zM316 1116h471
v-973h365v-143h-914v143h365v830h-287v143z" />
    <glyph glyph-name="j" unicode="j" 
d="M536 1420c0 37.333 13.667 69.333 41 96s60.333 40 99 40s71.667 -13.333 99 -40s41 -58.667 41 -96s-13.667 -69.333 -41 -96s-60.333 -40 -99 -40s-71.667 13.333 -99 40s-41 58.667 -41 96zM600 -20v997h-317v143h501v-1140c0 -130 -29.833 -230.167 -89.5 -300.5
s-144.5 -105.5 -254.5 -105.5h-254v156h234c60 0 105 20.833 135 62.5s45 104.167 45 187.5z" />
    <glyph glyph-name="k" unicode="k" 
d="M236 1556h190v-901l483 465h224l-441 -422l510 -698h-225l-414 578l-137 -129v-449h-190v1556z" />
    <glyph glyph-name="l" unicode="l" 
d="M380 1544h380v-1400h196l4 -144h-608l4 140h196l4 1260h-176v144z" />
    <glyph glyph-name="m" unicode="m" 
d="M676 1006c22.667 48 51.499 83.5 86.499 106.5s77.167 34.5 126.5 34.5c90 0 153.5 -34.833 190.5 -104.5s55.5 -200.834 55.5 -393.501v-649h-168v641c0 158 -8.83301 256.167 -26.5 294.5s-49.834 57.5 -96.501 57.5c-53.333 0 -89.833 -20.5 -109.5 -61.5
s-29.5 -137.833 -29.5 -290.5v-641h-168v641c0 160 -9.5 258.667 -28.5 296s-53.167 56 -102.5 56c-48.667 0 -82.5 -20.5 -101.5 -61.5s-28.5 -137.833 -28.5 -290.5v-641h-167v1120h167v-96c22 40 49.5 70.5 82.5 91.5s70.5 31.5 112.5 31.5
c50.667 0 92.834 -11.667 126.501 -35s59.834 -58.666 78.501 -105.999z" />
    <glyph glyph-name="n" unicode="n" 
d="M1051 694l-0.000976562 -694h-185v694c0 100.667 -17.667 174.667 -53 222s-90.666 71 -165.999 71c-86 0 -152.167 -30.5 -198.5 -91.5s-69.5 -148.5 -69.5 -262.5v-633h-184v1120h184v-168c32.667 64 77 112.5 133 145.5s122.333 49.5 199 49.5
c114 0 199.167 -37.5 255.5 -112.5s84.5 -188.5 84.5 -340.5z" />
    <glyph glyph-name="o" unicode="o" 
d="M616 991c-93.333 0 -164 -36.333 -212 -109s-72 -180.334 -72 -323.001c0 -142 24 -249.5 72 -322.5s118.667 -109.5 212 -109.5c94 0 165 36.5 213 109.5s72 180.5 72 322.5c0 142.667 -24 250.334 -72 323.001s-119 109 -213 109zM616 1147
c155.333 0 274.167 -50.333 356.5 -151s123.5 -246.334 123.5 -437.001c0 -191.333 -41 -337.166 -123 -437.499s-201 -150.5 -357 -150.5c-155.333 0 -274 50.167 -356 150.5s-123 246.166 -123 437.499c0 190.667 41 336.334 123 437.001s200.667 151 356 151z" />
    <glyph glyph-name="p" unicode="p" 
d="M375 141v-567h-185v1546h185v-143c30.667 55.333 71.5 97.5 122.5 126.5s109.833 43.5 176.5 43.5c135.333 0 241.5 -52.333 318.5 -157s115.5 -249.667 115.5 -435c0 -182 -38.667 -324.833 -116 -428.5s-183.333 -155.5 -318 -155.5c-68 0 -127.5 14.5 -178.5 43.5
s-91.167 71.167 -120.5 126.5zM915 559c0 142.667 -22.5 250.331 -67.5 322.998s-111.833 109 -200.5 109c-89.333 0 -157 -36.5 -203 -109.5s-69 -180.5 -69 -322.5c0 -141.333 23 -248.666 69 -321.999s113.667 -110 203 -110c88.667 0 155.5 36.333 200.5 109
s67.5 180.334 67.5 323.001z" />
    <glyph glyph-name="q" unicode="q" 
d="M332 555c0 -142.667 22.5 -250.332 67.5 -322.999s111.833 -109 200.5 -109s155.834 36.5 201.501 109.5s68.5 180.5 68.5 322.5s-22.833 249.5 -68.5 322.5s-112.834 109.5 -201.501 109.5s-155.5 -36.333 -200.5 -109s-67.5 -180.334 -67.5 -323.001zM1188 -247.998
v-184h-8h-12c-76 0 -146.667 29.333 -212 88c-53.333 48 -81.333 101.333 -84 160l-2 323c-30 -55.333 -70.5 -97.833 -121.5 -127.5s-110.167 -44.5 -177.5 -44.5c-134 0 -239.833 51.833 -317.5 155.5s-116.5 246.5 -116.5 428.5c0 185.333 38.667 330.333 116 435
s183.333 157 318 157c66.667 0 125.5 -14.5 176.5 -43.5s91.833 -71.167 122.5 -126.5v143h185l1 -1236c0 -85.333 44 -128 132 -128z" />
    <glyph glyph-name="r" unicode="r" 
d="M1155 889c-39.333 30.667 -79.3311 53.001 -119.998 67.001s-85.334 21 -134.001 21c-114.667 0 -202.334 -36 -263.001 -108s-91 -176 -91 -312v-557h-185v1120h185v-219c30.667 79.333 77.834 140.166 141.501 182.499s139.167 63.5 226.5 63.5
c45.333 0 87.666 -5.66699 126.999 -17s77 -29 113 -53v-188z" />
    <glyph glyph-name="s" unicode="s" 
d="M973 1081l-0.000976562 -179.999c-52.667 30.667 -105.667 53.667 -159 69s-107.666 23 -162.999 23c-83.333 0 -145.5 -13.5 -186.5 -40.5s-61.5 -68.167 -61.5 -123.5c0 -50 15.333 -87.333 46 -112s107 -48.667 229 -72l74 -14c91.333 -17.333 160.5 -52 207.5 -104
s70.5 -119.667 70.5 -203c0 -110.667 -39.333 -197.167 -118 -259.5s-188 -93.5 -328 -93.5c-55.333 0 -113.333 5.83301 -174 17.5s-126.334 29.167 -197.001 52.5v190c68.667 -35.333 134.334 -61.833 197.001 -79.5s122 -26.5 178 -26.5c81.333 0 144.333 16.5 189 49.5
s67 79.167 67 138.5c0 85.333 -81.667 144.333 -245 177l-8 2l-69 14c-106 20.667 -183.333 55.5 -232 104.5s-73 115.833 -73 200.5c0 107.333 36.333 190.166 109 248.499s176.334 87.5 311.001 87.5c60 0 117.667 -5.5 173 -16.5s109.666 -27.5 162.999 -49.5z" />
    <glyph glyph-name="t" unicode="t" 
d="M614 1438v-317.998h418v-143h-418v-608c0 -82.667 15.667 -140.334 47 -173.001s86 -49 164 -49h207v-147h-225c-138 0 -235.333 27.667 -292 83s-85 150.666 -85 285.999v608h-299v143h299v318h184z" />
    <glyph glyph-name="u" unicode="u" 
d="M195 424l-0.00195312 694h184v-694c0 -100.667 17.833 -174.667 53.5 -222s90.834 -71 165.501 -71c86.667 0 153 30.5 199 91.5s69 148.5 69 262.5v633h185v-1118h-185v168c-32.667 -64.667 -77.167 -113.667 -133.5 -147s-122.166 -50 -197.499 -50
c-114.667 0 -200 37.5 -256 112.5s-84 188.5 -84 340.5z" />
    <glyph glyph-name="v" unicode="v" 
d="M100 1120h191l325 -940l326 940h191l-398 -1120h-237z" />
    <glyph glyph-name="w" unicode="w" 
d="M0 1120h182l195 -905l160 578h157l162 -578l195 905h182l-262 -1120h-176l-179 614l-178 -614h-176z" />
    <glyph glyph-name="x" unicode="x" 
d="M1118 1120l-401 -536l440 -584h-213l-328 449l-327 -449h-213l440 584l-401 536h204l297 -405l295 405h207z" />
    <glyph glyph-name="y" unicode="y" 
d="M858 360l-117 -308c-66 -176 -110.333 -283.333 -133 -322c-30.667 -52 -69 -91 -115 -117s-99.667 -39 -161 -39h-148v154h109c54 0 96.333 15.667 127 47s69.667 112.333 117 243l-433 1102h195l332 -876l327 876h195z" />
    <glyph glyph-name="z" unicode="z" 
d="M227 1122h813v-168l-643 -804h643v-150h-837v170l643 805h-619v147z" />
    <glyph glyph-name="braceleft" unicode="{" 
d="M1032 -51v-144.002h-64c-166 0 -277.167 24.667 -333.5 74s-84.5 147.666 -84.5 294.999v200c0 72.667 -20.5 135.334 -61.5 188.001s-104.5 79 -190.5 79h-122v143h122c94 0 159.5 22.333 196.5 67s55.5 110.334 55.5 197.001v260c0 147.333 28.167 245.5 84.5 294.5
s167.5 73.5 333.5 73.5h64v-143h-70c-93.333 0 -154.166 -14.5 -182.499 -43.5s-42.5 -90.833 -42.5 -185.5v-268c0 -117.333 -23 -196.166 -69 -236.499s-135.667 -69.5 -269 -87.5c129.333 -15.333 218 -44.833 266 -88.5s72 -122.5 72 -236.5v-209
c0 -95.333 14.167 -157.333 42.5 -186s89.166 -43 182.499 -43h70z" />
    <glyph glyph-name="bar" unicode="|" 
d="M742 1565v-2048h-172v2048h172z" />
    <glyph glyph-name="braceright" unicode="}" 
d="M289 -51c93.333 0 154.166 14.335 182.499 43.002s42.5 90.667 42.5 186v209c0 114 24 192.833 72 236.5s136.667 73.167 266 88.5c-133.333 18 -223 47.167 -269 87.5s-69 119.166 -69 236.499v268c0 94.667 -14.167 156.5 -42.5 185.5s-89.166 43.5 -182.499 43.5h-70
v143h64c166 0 277.167 -24.5 333.5 -73.5s84.5 -147.167 84.5 -294.5v-260c0 -86.667 18.5 -152.334 55.5 -197.001s102.5 -67 196.5 -67h122v-143h-122c-86 0 -149.5 -26.333 -190.5 -79s-61.5 -115.334 -61.5 -188.001v-200c0 -147.333 -28.167 -245.666 -84.5 -294.999
s-167.5 -74 -333.5 -74h-64v144h70z" />
    <glyph glyph-name="asciitilde" unicode="~" 
d="M1087 784l130 -87.998c-57.333 -130.667 -113.666 -219.834 -168.999 -267.501s-112.333 -71.5 -171 -71.5c-93.333 5.33301 -177.5 53.833 -252.5 145.5l-158.5 195c-30.667 38.333 -70.334 57.166 -119.001 56.499c-51.333 0 -90.333 -24.167 -117 -72.5
s-54.667 -109.833 -84 -184.5l-133 76c38.667 123.333 88.667 214.333 150 273s123 88 185 88c112.667 1.33301 213.5 -65.334 302.5 -200.001s164.5 -202 226.5 -202c52.667 0 95.667 28.833 129 86.5s60.333 112.834 81 165.501z" />
    <glyph glyph-name="nonbreakingspace" unicode="&#xa0;" 
 />
    <glyph glyph-name="exclamdown" unicode="&#xa1;" 
d="M516 1239v254h203v-254h-203zM516 0v655l21 357h161l21 -357v-655h-203z" />
    <glyph glyph-name="cent" unicode="&#xa2;" 
d="M1061 1077l-0.000976562 -172.003c-44.667 26.667 -88.667 47.334 -132 62.001s-79.333 23.334 -108 26.001v-870c28.667 3.33301 64.834 12.5 108.501 27.5s87.5 35.833 131.5 62.5v-172c-48.667 -20.667 -94.667 -36.667 -138 -48s-77.333 -18 -102 -20v-286h-123v286
c-150 14.667 -268.333 74.167 -355 178.5s-130 240.166 -130 407.499c0 166.667 43.833 302.834 131.5 408.501s205.5 164.834 353.5 177.501v287h123v-287c24.667 -2 58.667 -8.66699 102 -20s89.333 -27.333 138 -48zM697.999 126.997v864.001
c-88 -8 -158.667 -51.333 -212 -130s-80 -179.334 -80 -302.001s26.667 -223.167 80 -301.5s124 -121.833 212 -130.5z" />
    <glyph glyph-name="sterling" unicode="&#xa3;" 
d="M1092 1462l-0.00292969 -183.999c-41.333 29.333 -83.166 51.333 -125.499 66s-85.833 22 -130.5 22c-89.333 0 -155.166 -29.833 -197.499 -89.5s-63.5 -153.5 -63.5 -281.5v-217h371v-143h-371v-465h537v-170h-973v170h236v465h-199v143h199v238
c0 169.333 36.5 295.666 109.5 378.999s183.833 125 332.5 125c43.333 0 87.833 -4.83301 133.5 -14.5s92.834 -24.167 141.501 -43.5z" />
    <glyph glyph-name="currency" unicode="&#xa4;" 
d="M868 643c0 60 -20.667 110.5 -62 151.5s-92.333 61.5 -153 61.5c-60 0 -110.833 -20.5 -152.5 -61.5s-62.5 -91.5 -62.5 -151.5c0 -61.333 20.833 -112.833 62.5 -154.5s92.5 -62.5 152.5 -62.5c60.667 0 111.667 21 153 63s62 93.333 62 154zM844 924l166 165.998
l90 -93l-166 -166c20 -32.667 34.833 -64.5 44.5 -95.5s14.5 -62.5 14.5 -94.5c0 -33.333 -5 -65.166 -15 -95.499s-25.333 -60.5 -46 -90.5l168 -166l-94 -94l-166 167c-30.667 -20.667 -61.167 -36 -91.5 -46s-62.166 -15 -95.499 -15c-32 0 -64 4.83301 -96 14.5
s-64 23.834 -96 42.501l-164 -163l-92 90l166 166c-20.667 34 -35.834 66.5 -45.501 97.5s-14.5 61.833 -14.5 92.5c0 33.333 5.16699 65.5 15.5 96.5s25.833 61.5 46.5 91.5l-168 166l94 95l166 -168c30.667 20.667 61.167 36 91.5 46s62.5 15 96.5 15
c30.667 0 61.667 -4.83301 93 -14.5s64 -24.5 98 -44.5z" />
    <glyph glyph-name="yen" unicode="&#xa5;" 
d="M37 1493h215l364 -659l363 659h217l-330 -561h252v-111h-315l-86 -151v-35h401v-111h-401v-524h-203v524h-399v111h399v35l-90 151h-309v111h243z" />
    <glyph glyph-name="brokenbar" unicode="&#xa6;" 
d="M702 1432v-758h-172v758h172zM702 408v-758h-172v758h172z" />
    <glyph glyph-name="section" unicode="&#xa7;" 
d="M936 1462l0.00390625 -164.003c-55.333 26 -106.833 45.5 -154.5 58.5s-90.5 19.5 -128.5 19.5c-64.667 0 -114.834 -13.333 -150.501 -40s-53.5 -63.667 -53.5 -111c0 -60 68.333 -128.333 205 -205l40 -23c141.333 -79.333 233.666 -144.666 276.999 -195.999
s65 -110.666 65 -177.999c0 -60 -15.167 -113.333 -45.5 -160s-76.5 -87.667 -138.5 -123c40.667 -34.667 70.667 -70.167 90 -106.5s29 -75.833 29 -118.5c0 -94.667 -34 -170 -102 -226s-159.667 -84 -275 -84c-48.667 0 -98.834 4.83301 -150.501 14.5
s-106.5 24.167 -164.5 43.5v164c58 -26 111.667 -45.5 161 -58.5s93 -19.5 131 -19.5c68 0 120.833 14 158.5 42s56.5 67.333 56.5 118c0 68 -73.667 143 -221 225l-24 14c-142.667 80 -235.334 145.5 -278.001 196.5s-64 110.5 -64 178.5
c0 60.667 15.5 114.834 46.5 162.501s76.833 87.834 137.5 120.501c-40 29.333 -69.833 62.666 -89.5 99.999s-29.5 79 -29.5 125c0 86.667 33.333 156.5 100 209.5s155.667 79.5 267 79.5c48 0 97.5 -4.83301 148.5 -14.5s103.167 -24.167 156.5 -43.5zM485.004 935.997
c-41.333 -30 -72.166 -60 -92.499 -90s-30.5 -60.667 -30.5 -92c0 -50.667 23.5 -98.5 70.5 -143.5s152.833 -111.833 317.5 -200.5c41.333 30 72 60 92 90s30 60.667 30 92c0 50.667 -23.833 98.667 -71.5 144s-152.834 112 -315.501 200z" />
    <glyph glyph-name="dieresis" unicode="&#xa8;" 
d="M319 1552h203v-202h-203v202zM711 1552h202v-202h-202v202z" />
    <glyph glyph-name="copyright" unicode="&#xa9;" 
d="M864 1071l0.00195312 -108.001c-38.667 18.667 -76.5 32.5 -113.5 41.5s-74.833 13.5 -113.5 13.5c-78 0 -139.5 -24.833 -184.5 -74.5s-67.5 -117.167 -67.5 -202.5c0 -88 23.333 -155.667 70 -203s113.334 -71 200.001 -71c37.333 0 73.166 4.16699 107.499 12.5
s68.166 21.166 101.499 38.499v-104c-34.667 -15.333 -71 -26.666 -109 -33.999s-77.333 -11 -118 -11c-120 0 -214.5 33.333 -283.5 100s-103.5 157.334 -103.5 272.001c0 115.333 34.667 206.666 104 273.999s163.666 101 282.999 101c40.667 0 80 -3.66699 118 -11
s74.333 -18.666 109 -33.999zM616.002 1255c-70.667 0 -136.168 -12.333 -196.501 -37s-115.5 -62 -165.5 -112s-87.833 -105.667 -113.5 -167s-38.5 -127.333 -38.5 -198c0 -69.333 12.833 -134.5 38.5 -195.5s63.5 -116.5 113.5 -166.5
c50.667 -50.667 106.167 -88.667 166.5 -114s125.5 -38 195.5 -38c70.667 0 136.167 12.667 196.5 38s115.833 63.333 166.5 114s88.5 106.167 113.5 166.5s37.5 125.5 37.5 195.5c0 70.667 -12.667 136.667 -38 198s-63 117 -113 167s-105.167 87.333 -165.5 112
s-126.166 37 -197.499 37zM616.001 1358c84.667 0 163.335 -15 236.002 -45s139 -75 199 -135c60 -60.667 105.333 -127.667 136 -201s46 -152 46 -236c0 -83.333 -15.167 -161.333 -45.5 -234s-75.833 -139.334 -136.5 -200.001s-127.334 -106.167 -200.001 -136.5
s-151 -45.5 -235 -45.5c-83.333 0 -161.333 15.167 -234 45.5s-139.334 75.833 -200.001 136.5s-106.167 127.334 -136.5 200.001s-45.5 150.667 -45.5 234c0 84 15.333 162.667 46 236s76 140.333 136 201c60 60 126.333 105 199 135s151 45 235 45z" />
    <glyph glyph-name="ordfeminine" unicode="&#xaa;" 
d="M684 1104c-96 0 -164.667 -11.333 -206 -34s-62 -60 -62 -112c0 -42.667 14.5 -76.834 43.5 -102.501s67.5 -38.5 115.5 -38.5c70 0 126.833 23.833 170.5 71.5s65.5 109.834 65.5 186.501v29h-127zM954 1165l0.00292969 -447.999h-143v112
c-32.667 -43.333 -70.834 -76 -114.501 -98s-92.834 -33 -147.501 -33c-86 0 -154 22.667 -204 68s-75 106.666 -75 183.999c0 86 31.167 152.333 93.5 199s150.833 70 265.5 70h182v4c0 60 -19.833 105.333 -59.5 136s-98.5 46 -176.5 46
c-34 0 -71.833 -5.83301 -113.5 -17.5s-84.834 -28.5 -129.501 -50.5v127c45.333 18.667 90.5 32.667 135.5 42s88.5 14 130.5 14c122.667 0 212.667 -28.667 270 -86s86 -147 86 -269zM293.003 592.001h668v-123h-668v123z" />
    <glyph glyph-name="guillemotleft" unicode="&#xab;" 
d="M588 1059v-191l-301 -268l301 -268v-191l-469 418v82zM1042 1059v-191l-301 -268l301 -268v-191l-469 418v82z" />
    <glyph glyph-name="logicalnot" unicode="&#xac;" 
d="M88 862h1057v-491h-168v319h-889v172z" />
    <glyph glyph-name="sfthyphen" unicode="&#xad;" 
d="M132 744h990v-189h-990v189z" />
    <glyph glyph-name="registered" unicode="&#xae;" 
d="M600 1100c98 0 171 -16.335 219 -49.002s72 -82.667 72 -150c0 -47.333 -14.667 -86.5 -44 -117.5s-70.666 -51.167 -123.999 -60.5c12.667 -3.33301 28.667 -16.166 48 -38.499s41.666 -53.166 66.999 -92.499l114 -186h-143l-107 174
c-32.667 53.333 -59.167 87 -79.5 101s-45.5 21 -75.5 21h-55v-296h-130v694h238zM594 1016h-102v-232h102c60 0 102.333 9 127 27s37 48 37 90c0 41.333 -12.333 70.833 -37 88.5s-67 26.5 -127 26.5zM616 1358c84.667 0 163.335 -15 236.002 -45s139 -75 199 -135
c60 -60.667 105.333 -127.667 136 -201s46 -152 46 -236c0 -83.333 -15.167 -161.333 -45.5 -234s-75.833 -139.334 -136.5 -200.001s-127.334 -106.167 -200.001 -136.5s-151 -45.5 -235 -45.5c-83.333 0 -161.333 15.167 -234 45.5s-139.334 75.833 -200.001 136.5
s-106.167 127.334 -136.5 200.001s-45.5 150.667 -45.5 234c-0 84 15.333 162.667 46 236s76 140.333 136 201c60 60 126.333 105 199 135s151 45 235 45zM616.001 1255c-70.667 0 -136.168 -12.333 -196.501 -37s-115.5 -62 -165.5 -112s-87.833 -105.667 -113.5 -167
s-38.5 -127.333 -38.5 -198c0 -69.333 12.833 -134.5 38.5 -195.5s63.5 -116.5 113.5 -166.5c50.667 -50.667 106.167 -88.667 166.5 -114s125.5 -38 195.5 -38c70.667 0 136.167 12.667 196.5 38s115.833 63.333 166.5 114s88.5 106.167 113.5 166.5s37.5 125.5 37.5 195.5
c0 70.667 -12.667 136.667 -38 198s-63 117 -113 167s-105.167 87.333 -165.5 112s-126.166 37 -197.499 37z" />
    <glyph glyph-name="macron" unicode="&#xaf;" 
d="M117 1526h998v-148h-998v148z" />
    <glyph glyph-name="degree" unicode="&#xb0;" 
d="M616 1520c43.333 0 84.5 -8.16699 123.5 -24.5s73.167 -39.833 102.5 -70.5c30 -30 52.833 -64 68.5 -102s23.5 -79 23.5 -123c0 -88 -31 -162.5 -93 -223.5s-137.667 -91.5 -227 -91.5c-90 0 -165 30 -225 90s-90 135 -90 225c0 89.333 30.667 165 92 227
s136.333 93 225 93zM616 1391c-52.667 0 -97.5 -18.5 -134.5 -55.5s-55.5 -82.167 -55.5 -135.5s18.167 -98 54.5 -134s80.833 -54 133.5 -54c53.333 0 98.833 18.333 136.5 55s56.5 81 56.5 133c0 52.667 -18.667 97.667 -56 135s-82.333 56 -135 56z" />
    <glyph glyph-name="plusminus" unicode="&#xb1;" 
d="M88 170h1057v-170h-1057v170zM700 1291v-369h445v-170h-445v-372h-168v372h-444v170h444v369h168z" />
    <glyph glyph-name="twosuperior" unicode="&#xb2;" 
d="M483 782l410.003 -0.00195312v-114h-571v110l231 226c67.333 64.667 114.5 117.334 141.5 158.001s40.5 78 40.5 112c0 40.667 -16.667 73.667 -50 99s-77.333 38 -132 38c-32.667 0 -67.834 -6 -105.501 -18s-77.5 -30 -119.5 -54v125
c43.333 18.667 85.166 32.667 125.499 42s80.166 14 119.499 14c94.667 0 170.667 -22.167 228 -66.5s86 -102.166 86 -173.499c0 -38 -12.333 -76.833 -37 -116.5s-76.667 -98.5 -156 -176.5z" />
    <glyph glyph-name="threesuperior" unicode="&#xb3;" 
d="M731 1120c62.667 -14 110.5 -38.998 143.5 -74.998s49.5 -80.667 49.5 -134c0 -82.667 -31.667 -146.334 -95 -191.001s-154 -67 -272 -67c-38.667 0 -77 3.5 -115 10.5s-76.667 17.167 -116 30.5v121c46 -18 87.833 -31.333 125.5 -40s71.5 -13 101.5 -13
c67.333 0 120.666 13.5 159.999 40.5s59 63.167 59 108.5c0 49.333 -18.333 86.666 -55 111.999s-91.334 38 -164.001 38h-66v108h74c62 0 109.333 10.5 142 31.5s49 51.5 49 91.5c0 37.333 -16 66.5 -48 87.5s-77 31.5 -135 31.5c-29.333 0 -62.666 -4 -99.999 -12
s-75.666 -19.667 -114.999 -35v121c46 11.333 88.5 20 127.5 26s75.167 9 108.5 9c96.667 0 173 -19.667 229 -59s84 -92 84 -158c0 -47.333 -14.667 -86.5 -44 -117.5s-72 -52.833 -128 -65.5z" />
    <glyph glyph-name="acute" unicode="&#xb4;" 
d="M756 1638h198l-325 -376h-154z" />
    <glyph glyph-name="mu" unicode="&#xb5;" 
d="M195 -428l-0.00292969 1548h184v-696c0 -94.667 20 -167.167 60 -217.5s97 -75.5 171 -75.5c84.667 0 148.5 28.333 191.5 85s64.5 140.334 64.5 251.001v653h185v-864c0 -39.333 5.33301 -68.333 16 -87s27 -28 49 -28c6 0 13.833 1.66699 23.5 5
s23.834 9.33301 42.501 18v-148c-25.333 -15.333 -49.333 -26.666 -72 -33.999s-45.334 -11 -68.001 -11c-41.333 0 -74.5 13.167 -99.5 39.5s-41.5 65.833 -49.5 118.5c-30.667 -53.333 -68.167 -93 -112.5 -119s-96.166 -39 -155.499 -39
c-61.333 0 -113.166 12.667 -155.499 38s-78.166 64.666 -107.499 117.999v-555h-167z" />
    <glyph glyph-name="paragraph" unicode="&#xb6;" 
d="M582 1493l448 -0.000976562v-1690h-141v1567h-191v-1567h-141v846c-143.333 11.333 -254.333 53.833 -333 127.5s-118 171.834 -118 294.501c0 126.667 43.5 228.667 130.5 306s202.167 116 345.5 116z" />
    <glyph glyph-name="periodcentered" unicode="&#xb7;" 
d="M489 864h252v-305h-252v305z" />
    <glyph glyph-name="cedilla" unicode="&#xb8;" 
d="M700 0c37.333 -41.333 64.833 -79.501 82.5 -114.501s26.5 -68.5 26.5 -100.5c0 -59.333 -20 -104.166 -60 -134.499s-99.333 -45.5 -178 -45.5c-30 0 -59.5 2 -88.5 6s-58.167 10 -87.5 18v131c22.667 -11.333 46.5 -19.5 71.5 -24.5s53.167 -7.5 84.5 -7.5
c38.667 0 68.167 8 88.5 24s30.5 39.333 30.5 70c0 20 -7.33301 44.5 -22 73.5s-36.667 63.833 -66 104.5h118z" />
    <glyph glyph-name="onesuperior" unicode="&#xb9;" 
d="M362 778h205v611l-223 -41v116l229 39h138v-725h204v-110h-553v110z" />
    <glyph glyph-name="ordmasculine" unicode="&#xba;" 
d="M616 1403c-68 0 -121.167 -26 -159.5 -78s-57.5 -124.333 -57.5 -217s19.167 -164.667 57.5 -216s91.5 -77 159.5 -77c67.333 0 120.5 26.167 159.5 78.5s58.5 123.833 58.5 214.5c0 92.667 -19.167 165 -57.5 217s-91.833 78 -160.5 78zM616 1520
c113.333 0 203.831 -37.333 271.498 -112s101.5 -174.667 101.5 -300c0 -124.667 -33.667 -224.167 -101 -298.5s-158 -111.5 -272 -111.5c-113.333 0 -203.666 37.167 -270.999 111.5s-101 173.833 -101 298.5c0 125.333 33.833 225.333 101.5 300s157.834 112 270.501 112
zM275.998 592h676v-123h-676v123z" />
    <glyph glyph-name="guillemotright" unicode="&#xbb;" 
d="M647 1059l469 -418v-82l-469 -418v191l301 268l-301 268v191zM193 1059l469 -418v-82l-469 -418v191l301 268l-301 268v191z" />
    <glyph glyph-name="onequarter" unicode="&#xbc;" 
d="M815 566h162v-538h116v-111h-116v-186h-138v186h-387v121zM839 441l-274 -413h274v413zM105 934h205v611l-223 -41v116l229 39h138v-725h204v-110h-553v110zM51 504l-24 108l1060 262l27 -108z" />
    <glyph glyph-name="onehalf" unicode="&#xbd;" 
d="M105 934h205v611l-223 -41v116l229 39h138v-725h204v-110h-553v110zM51 504l-24 108l1060 262l27 -108zM684 -155l410.003 -0.00195312v-114h-571v110l231 226c67.333 64.667 114.5 117.334 141.5 158.001s40.5 78 40.5 112c0 40.667 -16.667 73.667 -50 99
s-77.333 38 -132 38c-32.667 0 -67.834 -6 -105.501 -18s-77.5 -30 -119.5 -54v125c43.333 18.667 85.166 32.667 125.499 42s80.166 14 119.499 14c94.667 0 170.667 -22.167 228 -66.5s86 -102.166 86 -173.499c0 -38 -12.333 -76.833 -37 -116.5
s-76.667 -98.5 -156 -176.5z" />
    <glyph glyph-name="threequarters" unicode="&#xbe;" 
d="M815 566h162v-538h116v-111h-116v-186h-138v186h-387v121zM839 441l-274 -413h274v413zM505 1276c62.667 -14 110.5 -38.998 143.5 -74.998s49.5 -80.667 49.5 -134c0 -82.667 -31.667 -146.334 -95 -191.001s-154 -67 -272 -67c-38.667 0 -77 3.5 -115 10.5
s-76.667 17.167 -116 30.5v121c46 -18 87.833 -31.333 125.5 -40s71.5 -13 101.5 -13c67.333 0 120.666 13.5 159.999 40.5s59 63.167 59 108.5c0 49.333 -18.333 86.666 -55 111.999s-91.334 38 -164.001 38h-66v108h74c62 0 109.333 10.5 142 31.5s49 51.5 49 91.5
c0 37.333 -16 66.5 -48 87.5s-77 31.5 -135 31.5c-29.333 0 -62.666 -4 -99.999 -12s-75.666 -19.667 -114.999 -35v121c46 11.333 88.5 20 127.5 26s75.167 9 108.5 9c96.667 0 173 -19.667 229 -59s84 -92 84 -158c0 -47.333 -14.667 -86.5 -44 -117.5
s-72 -52.833 -128 -65.5zM51 504.002l-24 108l1060 262l27 -108z" />
    <glyph glyph-name="questiondown" unicode="&#xbf;" 
d="M549 1092l190 -0.000976562v-154c0 -65.333 -10.167 -120.833 -30.5 -166.5s-58.5 -95.834 -114.5 -150.501l-90 -89c-41.333 -39.333 -69.833 -73.666 -85.5 -102.999s-23.5 -60.333 -23.5 -93c0 -59.333 21.833 -107.333 65.5 -144s101.834 -55 174.501 -55
c52 0 107.667 11.5 167 34.5s121.666 57.167 186.999 102.5v-188c-62.667 -38 -125.834 -66.333 -189.501 -85s-130.167 -28 -199.5 -28c-124 0 -222.833 32 -296.5 96s-110.5 149.667 -110.5 257c0 50.667 11.167 97.834 33.5 141.501s64.833 96.167 127.5 157.5l88 86
c44.667 42.667 73.334 78 86.001 106s19 63 19 105v5c1.33301 15.333 2 29.333 2 42v123zM745 1239h-202v254h202v-254z" />
    <glyph glyph-name="Agrave" unicode="&#xc0;" 
d="M616 1315l-213 -764h426zM494 1493h245l457 -1493h-209l-110 389h-523l-108 -389h-209zM561 1899l197 -264h-154l-227 264h184z" />
    <glyph glyph-name="Aacute" unicode="&#xc1;" 
d="M616 1315l-213 -764h426zM494 1493h245l457 -1493h-209l-110 389h-523l-108 -389h-209zM672 1899h186l-229 -264h-154z" />
    <glyph glyph-name="Acircumflex" unicode="&#xc2;" 
d="M616 1315l-213 -764h426zM494 1493h245l457 -1493h-209l-110 389h-523l-108 -389h-209zM522 1901h189l211 -266h-140l-166 178l-165 -178h-140z" />
    <glyph glyph-name="Atilde" unicode="&#xc3;" 
d="M616 1315l-213 -764h426zM494 1493h245l457 -1493h-209l-110 389h-523l-108 -389h-209zM612 1710l-57.002 33.002c-16.667 9.33301 -30.167 15.833 -40.5 19.5s-19.5 5.5 -27.5 5.5c-23.333 0 -41.666 -8.33301 -54.999 -25s-20 -40 -20 -70v-6h-125
c0 67.333 17.167 120.666 51.5 159.999s79.833 59 136.5 59c24 0 46.167 -2.66699 66.5 -8s46.833 -17 79.5 -35l57 -30c14.667 -8.66699 27.834 -15 39.501 -19s22.5 -6 32.5 -6c20.667 0 37.667 8.5 51 25.5s20 39.167 20 66.5v6h125
c-1.33301 -66.667 -19 -119.834 -53 -159.501s-79 -59.5 -135 -59.5c-22.667 0 -44 2.66699 -64 8s-47.333 17 -82 35z" />
    <glyph glyph-name="Adieresis" unicode="&#xc4;" 
d="M616 1315l-213 -764h426zM494 1493h245l457 -1493h-209l-110 389h-523l-108 -389h-209zM319 1870h203v-203h-203v203zM711 1870h202v-203h-202v203z" />
    <glyph glyph-name="Aring" unicode="&#xc5;" 
d="M768 1626c0 42 -14.833 77.833 -44.5 107.5s-65.5 44.5 -107.5 44.5c-42.667 0 -78.5 -14.5 -107.5 -43.5s-43.5 -65.167 -43.5 -108.5c0 -42 14.667 -77.667 44 -107s65 -44 107 -44s77.833 14.667 107.5 44s44.5 65 44.5 107zM616 1311l-213 -760h426zM465 1399
c-38.667 22 -68.834 53.167 -90.501 93.5s-32.5 84.833 -32.5 133.5c0 76 26.667 140.833 80 194.5s118 80.5 194 80.5s140.833 -26.833 194.5 -80.5s80.5 -118.5 80.5 -194.5c0 -48.667 -10.667 -92.667 -32 -132s-51.666 -71 -90.999 -95l428 -1399h-209l-110 389h-523
l-108 -389h-209z" />
    <glyph glyph-name="AE" unicode="&#xc6;" 
d="M1161 1493v-170h-338v-442h307v-170h-307v-541h357v-170h-543v383h-352l-101 -383h-184l410 1493h751zM530 1323l-202 -772h309v772h-107z" />
    <glyph glyph-name="Ccedilla" unicode="&#xc7;" 
d="M800 0c37.333 -41.333 64.833 -79.501 82.5 -114.501s26.5 -68.5 26.5 -100.5c0 -59.333 -20 -104.166 -60 -134.499s-99.333 -45.5 -178 -45.5c-30 0 -59.5 2 -88.5 6s-58.167 10 -87.5 18v131c22.667 -11.333 46.5 -19.5 71.5 -24.5s53.167 -7.5 84.5 -7.5
c38.667 0 68.167 8 88.5 24s30.5 39.333 30.5 70c0 20 -7.33301 44.5 -22 73.5s-36.667 63.833 -66 104.5h118zM1073 52.999c-51.333 -27.333 -104 -47.832 -158 -61.499s-111.333 -20.5 -172 -20.5c-191.333 0 -339.833 67.667 -445.5 203s-158.5 325.666 -158.5 570.999
c0 244 53.167 434.167 159.5 570.5s254.5 204.5 444.5 204.5c60.667 0 118 -6.83301 172 -20.5s106.667 -34.167 158 -61.5v-207c-49.333 40.667 -102.333 71.667 -159 93s-113.667 32 -171 32c-131.333 0 -229.666 -50.667 -294.999 -152s-98 -254.333 -98 -459
c0 -204 32.667 -356.667 98 -458s163.666 -152 294.999 -152c58.667 0 116.167 10.667 172.5 32s108.833 52.333 157.5 93v-207z" />
    <glyph glyph-name="Egrave" unicode="&#xc8;" 
d="M197 1493h886v-170h-684v-402h654v-170h-654v-581h703v-170h-905v1493zM579 1899l197 -264h-154l-227 264h184z" />
    <glyph glyph-name="Eacute" unicode="&#xc9;" 
d="M197 1493h886v-170h-684v-402h654v-170h-654v-581h703v-170h-905v1493zM690 1899h186l-229 -264h-154z" />
    <glyph glyph-name="Ecircumflex" unicode="&#xca;" 
d="M197 1493h886v-170h-684v-402h654v-170h-654v-581h703v-170h-905v1493zM540 1901h189l211 -266h-140l-166 178l-165 -178h-140z" />
    <glyph glyph-name="Edieresis" unicode="&#xcb;" 
d="M197 1493h886v-170h-684v-402h654v-170h-654v-581h703v-170h-905v1493zM337 1870h203v-203h-203v203zM729 1870h202v-203h-202v203z" />
    <glyph glyph-name="Igrave" unicode="&#xcc;" 
d="M201 1493h829v-170h-313v-1153h313v-170h-829v170h313v1153h-313v170zM561 1899l197 -264h-154l-227 264h184z" />
    <glyph glyph-name="Iacute" unicode="&#xcd;" 
d="M201 1493h829v-170h-313v-1153h313v-170h-829v170h313v1153h-313v170zM672 1899h186l-229 -264h-154z" />
    <glyph glyph-name="Icircumflex" unicode="&#xce;" 
d="M201 1493h829v-170h-313v-1153h313v-170h-829v170h313v1153h-313v170zM522 1901h189l211 -266h-140l-166 178l-165 -178h-140z" />
    <glyph glyph-name="Idieresis" unicode="&#xcf;" 
d="M201 1493h829v-170h-313v-1153h313v-170h-829v170h313v1153h-313v170zM319 1870h203v-203h-203v203zM711 1870h202v-203h-202v203z" />
    <glyph glyph-name="Eth" unicode="&#xd0;" 
d="M436 1493c228 0 395.999 -60.667 503.999 -182s162 -310 162 -566c0 -254.667 -54.167 -442.5 -162.5 -563.5s-276.166 -181.5 -503.499 -181.5h-303v709h-125v149h125v635h303zM435.999 166c170 0 288.667 41.8311 356 125.498s101 234.834 101 453.501
c0 220.667 -33.5 372.834 -100.5 456.501s-185.833 125.5 -356.5 125.5h-96v-469h264v-149h-264v-543h96z" />
    <glyph glyph-name="Ntilde" unicode="&#xd1;" 
d="M19 1488h276l584 -1225v1225h215v-1488h-276l-584 1225v-1225h-215v1488zM612 1714l-57.002 33.002c-16.667 9.33301 -30.167 15.833 -40.5 19.5s-19.5 5.5 -27.5 5.5c-23.333 0 -41.666 -8.33301 -54.999 -25s-20 -40 -20 -70v-6h-125
c0 67.333 17.167 120.666 51.5 159.999s79.833 59 136.5 59c24 0 46.167 -2.66699 66.5 -8s46.833 -17 79.5 -35l57 -30c14.667 -8.66699 27.834 -15 39.501 -19s22.5 -6 32.5 -6c20.667 0 37.667 8.5 51 25.5s20 39.167 20 66.5v6h125
c-1.33301 -66.667 -19 -119.834 -53 -159.501s-79 -59.5 -135 -59.5c-22.667 0 -44 2.66699 -64 8s-47.333 17 -82 35z" />
    <glyph glyph-name="Ograve" unicode="&#xd2;" 
d="M905 745c0 219.333 -22.5 376 -67.5 470s-118.833 141 -221.5 141c-102 0 -175.5 -47 -220.5 -141s-67.5 -250.667 -67.5 -470c0 -218.667 22.5 -375 67.5 -469s118.5 -141 220.5 -141c102.667 0 176.5 46.833 221.5 140.5s67.5 250.167 67.5 469.5zM1116 745
c0 -260 -41.167 -453.999 -123.5 -581.999s-207.833 -192 -376.5 -192s-294 63.667 -376 191s-123 321.666 -123 582.999c0 260.667 41.167 455 123.5 583s207.5 192 375.5 192c168.667 0 294.167 -64 376.5 -192s123.5 -322.333 123.5 -583zM561 1899l197 -264h-154
l-227 264h184z" />
    <glyph glyph-name="Oacute" unicode="&#xd3;" 
d="M905 745c0 219.333 -22.5 376 -67.5 470s-118.833 141 -221.5 141c-102 0 -175.5 -47 -220.5 -141s-67.5 -250.667 -67.5 -470c0 -218.667 22.5 -375 67.5 -469s118.5 -141 220.5 -141c102.667 0 176.5 46.833 221.5 140.5s67.5 250.167 67.5 469.5zM1116 745
c0 -260 -41.167 -453.999 -123.5 -581.999s-207.833 -192 -376.5 -192s-294 63.667 -376 191s-123 321.666 -123 582.999c0 260.667 41.167 455 123.5 583s207.5 192 375.5 192c168.667 0 294.167 -64 376.5 -192s123.5 -322.333 123.5 -583zM672 1899h186l-229 -264h-154z
" />
    <glyph glyph-name="Ocircumflex" unicode="&#xd4;" 
d="M905 745c0 219.333 -22.5 376 -67.5 470s-118.833 141 -221.5 141c-102 0 -175.5 -47 -220.5 -141s-67.5 -250.667 -67.5 -470c0 -218.667 22.5 -375 67.5 -469s118.5 -141 220.5 -141c102.667 0 176.5 46.833 221.5 140.5s67.5 250.167 67.5 469.5zM1116 745
c0 -260 -41.167 -453.999 -123.5 -581.999s-207.833 -192 -376.5 -192s-294 63.667 -376 191s-123 321.666 -123 582.999c0 260.667 41.167 455 123.5 583s207.5 192 375.5 192c168.667 0 294.167 -64 376.5 -192s123.5 -322.333 123.5 -583zM522 1901h189l211 -266h-140
l-166 178l-165 -178h-140z" />
    <glyph glyph-name="Otilde" unicode="&#xd5;" 
d="M905 745c0 219.333 -22.5 376 -67.5 470s-118.833 141 -221.5 141c-102 0 -175.5 -47 -220.5 -141s-67.5 -250.667 -67.5 -470c0 -218.667 22.5 -375 67.5 -469s118.5 -141 220.5 -141c102.667 0 176.5 46.833 221.5 140.5s67.5 250.167 67.5 469.5zM1116 745
c0 -260 -41.167 -453.999 -123.5 -581.999s-207.833 -192 -376.5 -192s-294 63.667 -376 191s-123 321.666 -123 582.999c0 260.667 41.167 455 123.5 583s207.5 192 375.5 192c168.667 0 294.167 -64 376.5 -192s123.5 -322.333 123.5 -583zM612 1710l-57.002 33.002
c-16.667 9.33301 -30.167 15.833 -40.5 19.5s-19.5 5.5 -27.5 5.5c-23.333 0 -41.666 -8.33301 -54.999 -25s-20 -40 -20 -70v-6h-125c0 67.333 17.167 120.666 51.5 159.999s79.833 59 136.5 59c24 0 46.167 -2.66699 66.5 -8s46.833 -17 79.5 -35l57 -30
c14.667 -8.66699 27.834 -15 39.501 -19s22.5 -6 32.5 -6c20.667 0 37.667 8.5 51 25.5s20 39.167 20 66.5v6h125c-1.33301 -66.667 -19 -119.834 -53 -159.501s-79 -59.5 -135 -59.5c-22.667 0 -44 2.66699 -64 8s-47.333 17 -82 35z" />
    <glyph glyph-name="Odieresis" unicode="&#xd6;" 
d="M905 745c0 219.333 -22.5 376 -67.5 470s-118.833 141 -221.5 141c-102 0 -175.5 -47 -220.5 -141s-67.5 -250.667 -67.5 -470c0 -218.667 22.5 -375 67.5 -469s118.5 -141 220.5 -141c102.667 0 176.5 46.833 221.5 140.5s67.5 250.167 67.5 469.5zM1116 745
c0 -260 -41.167 -453.999 -123.5 -581.999s-207.833 -192 -376.5 -192s-294 63.667 -376 191s-123 321.666 -123 582.999c0 260.667 41.167 455 123.5 583s207.5 192 375.5 192c168.667 0 294.167 -64 376.5 -192s123.5 -322.333 123.5 -583zM319 1870h203v-203h-203v203z
M711 1870h202v-203h-202v203z" />
    <glyph glyph-name="multiply" unicode="&#xd7;" 
d="M150 293l350 348l-350 350l116 117l350 -350l351 350l116 -117l-350 -350l348 -348l-116 -119l-349 350l-348 -350z" />
    <glyph glyph-name="Oslash" unicode="&#xd8;" 
d="M371 303c20 -52 51.833 -92.999 95.5 -122.999s93.5 -45 149.5 -45c102.667 0 176.5 46.833 221.5 140.5s67.5 250.167 67.5 469.5c0 73.333 -1.66699 132.666 -5 177.999s-8.33301 83 -15 113zM338 471.001l504 719.001c-16.667 54 -44.167 95.167 -82.5 123.5
s-86.166 42.5 -143.499 42.5c-104.667 0 -178.834 -48.667 -222.501 -146s-65.5 -272 -65.5 -524c0 -53.333 0.833008 -96.833 2.5 -130.5s4.16699 -61.834 7.5 -84.501zM1032 1247c27.333 -54 48.165 -124 62.498 -210s21.5 -183.333 21.5 -292
c0 -260 -41.167 -454 -123.5 -582s-207.833 -192 -376.5 -192c-80.667 0 -151 13.5 -211 40.5s-110.333 67.5 -151 121.5l-143 -203l-103 70l178 252c-21.333 48.667 -38.166 116.667 -50.499 204s-18.5 183.666 -18.5 288.999c0 260.667 41.167 455 123.5 583
s207.5 192 375.5 192c76.667 0 143.834 -13.667 201.501 -41s105.5 -67.666 143.5 -120.999l139 201l100 -74z" />
    <glyph glyph-name="Ugrave" unicode="&#xd9;" 
d="M147 573l0.00390625 919.998h203v-1012c0 -72.667 2 -124.5 6 -155.5s11 -54.833 21 -71.5c21.333 -39.333 52.166 -69 92.499 -89s89.166 -30 146.499 -30c58 0 107 10 147 30s71 49.667 93 89c10 16.667 17 40.334 21 71.001s6 82 6 154v1014h202v-920
c0 -152.667 -9.5 -261.167 -28.5 -325.5s-51.833 -117.5 -98.5 -159.5c-44 -39.333 -94.333 -68.666 -151 -87.999s-120.334 -29 -191.001 -29c-70 0 -133.333 9.66699 -190 29s-107.334 48.666 -152.001 87.999c-46 41.333 -78.667 94.833 -98 160.5
s-29 173.834 -29 324.501zM561.004 1899l197 -264h-154l-227 264h184z" />
    <glyph glyph-name="Uacute" unicode="&#xda;" 
d="M147 573l0.00390625 919.998h203v-1012c0 -72.667 2 -124.5 6 -155.5s11 -54.833 21 -71.5c21.333 -39.333 52.166 -69 92.499 -89s89.166 -30 146.499 -30c58 0 107 10 147 30s71 49.667 93 89c10 16.667 17 40.334 21 71.001s6 82 6 154v1014h202v-920
c0 -152.667 -9.5 -261.167 -28.5 -325.5s-51.833 -117.5 -98.5 -159.5c-44 -39.333 -94.333 -68.666 -151 -87.999s-120.334 -29 -191.001 -29c-70 0 -133.333 9.66699 -190 29s-107.334 48.666 -152.001 87.999c-46 41.333 -78.667 94.833 -98 160.5
s-29 173.834 -29 324.501zM672.004 1899h186l-229 -264h-154z" />
    <glyph glyph-name="Ucircumflex" unicode="&#xdb;" 
d="M147 573l0.00390625 919.998h203v-1012c0 -72.667 2 -124.5 6 -155.5s11 -54.833 21 -71.5c21.333 -39.333 52.166 -69 92.499 -89s89.166 -30 146.499 -30c58 0 107 10 147 30s71 49.667 93 89c10 16.667 17 40.334 21 71.001s6 82 6 154v1014h202v-920
c0 -152.667 -9.5 -261.167 -28.5 -325.5s-51.833 -117.5 -98.5 -159.5c-44 -39.333 -94.333 -68.666 -151 -87.999s-120.334 -29 -191.001 -29c-70 0 -133.333 9.66699 -190 29s-107.334 48.666 -152.001 87.999c-46 41.333 -78.667 94.833 -98 160.5
s-29 173.834 -29 324.501zM522.004 1901h189l211 -266h-140l-166 178l-165 -178h-140z" />
    <glyph glyph-name="Udieresis" unicode="&#xdc;" 
d="M147 573l0.00390625 919.998h203v-1012c0 -72.667 2 -124.5 6 -155.5s11 -54.833 21 -71.5c21.333 -39.333 52.166 -69 92.499 -89s89.166 -30 146.499 -30c58 0 107 10 147 30s71 49.667 93 89c10 16.667 17 40.334 21 71.001s6 82 6 154v1014h202v-920
c0 -152.667 -9.5 -261.167 -28.5 -325.5s-51.833 -117.5 -98.5 -159.5c-44 -39.333 -94.333 -68.666 -151 -87.999s-120.334 -29 -191.001 -29c-70 0 -133.333 9.66699 -190 29s-107.334 48.666 -152.001 87.999c-46 41.333 -78.667 94.833 -98 160.5
s-29 173.834 -29 324.501zM319.004 1870h203v-203h-203v203zM711.004 1870h202v-203h-202v203z" />
    <glyph glyph-name="Yacute" unicode="&#xdd;" 
d="M37 1493h215l364 -659l363 659h217l-479 -823v-670h-203v670zM672 1899h186l-229 -264h-154z" />
    <glyph glyph-name="Thorn" unicode="&#xde;" 
d="M403 1057v-525h234c105.333 0 184.166 22 236.499 66s78.5 109.667 78.5 197s-26.167 152.833 -78.5 196.5s-131.166 65.5 -236.499 65.5h-234zM201 1493h202v-270h254c173.333 0 301.333 -35 384 -105s124 -177.667 124 -323c0 -146 -41.333 -253.833 -124 -323.5
s-210.667 -104.5 -384 -104.5h-254v-367h-202v1493z" />
    <glyph glyph-name="germandbls" unicode="&#xdf;" 
d="M188 1137c0 142 34.999 247.335 104.999 316.002s177 103 321 103c136 0 239 -36.833 309 -110.5s105.667 -182.5 107 -326.5c-103.333 -9.33301 -183 -34.666 -239 -75.999s-84 -95.333 -84 -162c0 -32.667 9.16699 -61.834 27.5 -87.501s49.833 -52.5 94.5 -80.5
l58 -37c100.667 -62 169.5 -120.333 206.5 -175s55.5 -120.667 55.5 -198c0 -102.667 -37.333 -183.667 -112 -243s-177.334 -89 -308.001 -89c-46 0 -91.5 4.16699 -136.5 12.5s-89.5 20.5 -133.5 36.5v164c50.667 -20.667 98.167 -36 142.5 -46s86.166 -15 125.499 -15
c72 0 129.333 16.167 172 48.5s64 75.5 64 129.5c0 47.333 -10.833 86.833 -32.5 118.5s-72.5 72.167 -152.5 121.5l-67 39c-61.333 37.333 -107.166 78.166 -137.499 122.499s-45.5 92.833 -45.5 145.5c0 85.333 27 156.5 81 213.5s133 97.167 237 120.5
c-1.33301 71.333 -22.166 126 -62.499 164s-98.166 57 -173.499 57c-80.667 0 -140 -21.833 -178 -65.5s-57 -111.834 -57 -204.501v-1133h-187v1137z" />
    <glyph glyph-name="agrave" unicode="&#xe0;" 
d="M702 563h-61.001c-107.333 0 -188.166 -18.833 -242.499 -56.5s-81.5 -93.834 -81.5 -168.501c0 -67.333 20.333 -119.666 61 -156.999s97 -56 169 -56c101.333 0 181 35.167 239 105.5s87.333 167.5 88 291.5v41h-172zM1059 639l-0.000976562 -638.999h-185v166
c-39.333 -66.667 -88.833 -115.834 -148.5 -147.501s-132.167 -47.5 -217.5 -47.5c-114 0 -205 32.167 -273 96.5s-102 150.5 -102 258.5c0 124.667 41.833 219.334 125.5 284.001s206.5 97 368.5 97h247v29c-0.666992 89.333 -23.334 154.166 -68.001 194.499
s-116 60.5 -214 60.5c-62.667 0 -126 -9 -190 -27s-126.333 -44.333 -187 -79v184c68 26 133.167 45.5 195.5 58.5s122.833 19.5 181.5 19.5c92.667 0 171.834 -13.667 237.501 -41s118.834 -68.333 159.501 -123c25.333 -33.333 43.333 -74.5 54 -123.5
s16 -122.5 16 -220.5zM476.998 1638l281 -376h-154l-325 376h198z" />
    <glyph glyph-name="aacute" unicode="&#xe1;" 
d="M702 563h-61.001c-107.333 0 -188.166 -18.833 -242.499 -56.5s-81.5 -93.834 -81.5 -168.501c0 -67.333 20.333 -119.666 61 -156.999s97 -56 169 -56c101.333 0 181 35.167 239 105.5s87.333 167.5 88 291.5v41h-172zM1059 639l-0.000976562 -638.999h-185v166
c-39.333 -66.667 -88.833 -115.834 -148.5 -147.501s-132.167 -47.5 -217.5 -47.5c-114 0 -205 32.167 -273 96.5s-102 150.5 -102 258.5c0 124.667 41.833 219.334 125.5 284.001s206.5 97 368.5 97h247v29c-0.666992 89.333 -23.334 154.166 -68.001 194.499
s-116 60.5 -214 60.5c-62.667 0 -126 -9 -190 -27s-126.333 -44.333 -187 -79v184c68 26 133.167 45.5 195.5 58.5s122.833 19.5 181.5 19.5c92.667 0 171.834 -13.667 237.501 -41s118.834 -68.333 159.501 -123c25.333 -33.333 43.333 -74.5 54 -123.5
s16 -122.5 16 -220.5zM755.998 1638h198l-325 -376h-154z" />
    <glyph glyph-name="acircumflex" unicode="&#xe2;" 
d="M702 563h-61.001c-107.333 0 -188.166 -18.833 -242.499 -56.5s-81.5 -93.834 -81.5 -168.501c0 -67.333 20.333 -119.666 61 -156.999s97 -56 169 -56c101.333 0 181 35.167 239 105.5s87.333 167.5 88 291.5v41h-172zM1059 639l-0.000976562 -638.999h-185v166
c-39.333 -66.667 -88.833 -115.834 -148.5 -147.501s-132.167 -47.5 -217.5 -47.5c-114 0 -205 32.167 -273 96.5s-102 150.5 -102 258.5c0 124.667 41.833 219.334 125.5 284.001s206.5 97 368.5 97h247v29c-0.666992 89.333 -23.334 154.166 -68.001 194.499
s-116 60.5 -214 60.5c-62.667 0 -126 -9 -190 -27s-126.333 -44.333 -187 -79v184c68 26 133.167 45.5 195.5 58.5s122.833 19.5 181.5 19.5c92.667 0 171.834 -13.667 237.501 -41s118.834 -68.333 159.501 -123c25.333 -33.333 43.333 -74.5 54 -123.5
s16 -122.5 16 -220.5zM542.998 1638h147l246 -376h-139l-181 245l-180 -245h-139z" />
    <glyph glyph-name="atilde" unicode="&#xe3;" 
d="M702 563h-61.001c-107.333 0 -188.166 -18.833 -242.499 -56.5s-81.5 -93.834 -81.5 -168.501c0 -67.333 20.333 -119.666 61 -156.999s97 -56 169 -56c101.333 0 181 35.167 239 105.5s87.333 167.5 88 291.5v41h-172zM1059 639l-0.000976562 -638.999h-185v166
c-39.333 -66.667 -88.833 -115.834 -148.5 -147.501s-132.167 -47.5 -217.5 -47.5c-114 0 -205 32.167 -273 96.5s-102 150.5 -102 258.5c0 124.667 41.833 219.334 125.5 284.001s206.5 97 368.5 97h247v29c-0.666992 89.333 -23.334 154.166 -68.001 194.499
s-116 60.5 -214 60.5c-62.667 0 -126 -9 -190 -27s-126.333 -44.333 -187 -79v184c68 26 133.167 45.5 195.5 58.5s122.833 19.5 181.5 19.5c92.667 0 171.834 -13.667 237.501 -41s118.834 -68.333 159.501 -123c25.333 -33.333 43.333 -74.5 54 -123.5
s16 -122.5 16 -220.5zM611.998 1370l-57 55c-14 13.333 -26.5 23.166 -37.5 29.499s-21.167 9.5 -30.5 9.5c-25.333 0 -44 -12.333 -56 -37s-18.667 -64 -20 -118h-124c0.666992 89.333 18 158.666 52 207.999s81.333 74 142 74c26 0 49.667 -4.66699 71 -14
s44.333 -25 69 -47l57 -55c14 -13.333 26.5 -23.166 37.5 -29.499s20.833 -9.5 29.5 -9.5c26 0 45 12.333 57 37s18.333 64 19 118h125c-0.666992 -89.333 -18 -158.666 -52 -207.999s-81.333 -74 -142 -74c-26 0 -49.667 4.66699 -71 14s-44.333 25 -69 47z" />
    <glyph glyph-name="adieresis" unicode="&#xe4;" 
d="M702 563h-61.001c-107.333 0 -188.166 -18.833 -242.499 -56.5s-81.5 -93.834 -81.5 -168.501c0 -67.333 20.333 -119.666 61 -156.999s97 -56 169 -56c101.333 0 181 35.167 239 105.5s87.333 167.5 88 291.5v41h-172zM1059 639l-0.000976562 -638.999h-185v166
c-39.333 -66.667 -88.833 -115.834 -148.5 -147.501s-132.167 -47.5 -217.5 -47.5c-114 0 -205 32.167 -273 96.5s-102 150.5 -102 258.5c0 124.667 41.833 219.334 125.5 284.001s206.5 97 368.5 97h247v29c-0.666992 89.333 -23.334 154.166 -68.001 194.499
s-116 60.5 -214 60.5c-62.667 0 -126 -9 -190 -27s-126.333 -44.333 -187 -79v184c68 26 133.167 45.5 195.5 58.5s122.833 19.5 181.5 19.5c92.667 0 171.834 -13.667 237.501 -41s118.834 -68.333 159.501 -123c25.333 -33.333 43.333 -74.5 54 -123.5
s16 -122.5 16 -220.5zM318.998 1552h203v-202h-203v202zM710.998 1552h202v-202h-202v202z" />
    <glyph glyph-name="aring" unicode="&#xe5;" 
d="M702 563h-61.001c-107.333 0 -188.166 -18.833 -242.499 -56.5s-81.5 -93.834 -81.5 -168.501c0 -67.333 20.333 -119.666 61 -156.999s97 -56 169 -56c101.333 0 181 35.167 239 105.5s87.333 167.5 88 291.5v41h-172zM1059 639l-0.000976562 -638.999h-185v166
c-39.333 -66.667 -88.833 -115.834 -148.5 -147.501s-132.167 -47.5 -217.5 -47.5c-114 0 -205 32.167 -273 96.5s-102 150.5 -102 258.5c0 124.667 41.833 219.334 125.5 284.001s206.5 97 368.5 97h247v29c-0.666992 89.333 -23.334 154.166 -68.001 194.499
s-116 60.5 -214 60.5c-62.667 0 -126 -9 -190 -27s-126.333 -44.333 -187 -79v184c68 26 133.167 45.5 195.5 58.5s122.833 19.5 181.5 19.5c92.667 0 171.834 -13.667 237.501 -41s118.834 -68.333 159.501 -123c25.333 -33.333 43.333 -74.5 54 -123.5
s16 -122.5 16 -220.5zM890.998 1524c0 -76.667 -26.5 -141.667 -79.5 -195s-118.167 -80 -195.5 -80c-76.667 0 -141.5 26.667 -194.5 80s-79.5 118.333 -79.5 195s26.5 141.5 79.5 194.5s117.833 79.5 194.5 79.5c77.333 0 142.5 -26.5 195.5 -79.5
s79.5 -117.833 79.5 -194.5zM767.998 1524c0 42 -14.667 77.667 -44 107s-65.333 44 -108 44s-78.5 -14.5 -107.5 -43.5s-43.5 -64.833 -43.5 -107.5c0 -43.333 14.5 -79.5 43.5 -108.5s64.833 -43.5 107.5 -43.5s78.667 14.667 108 44s44 65.333 44 108z" />
    <glyph glyph-name="ae" unicode="&#xe6;" 
d="M543 442v71.999h-49c-112.667 0 -189 -15 -229 -45s-60 -82.667 -60 -158c0 -59.333 14.833 -105.166 44.5 -137.499s72.167 -48.5 127.5 -48.5c61.333 0 104.333 22.167 129 66.5s37 127.833 37 250.5zM1036 656.999v52c0 100.667 -12.833 173.167 -38.5 217.5
s-67.5 66.5 -125.5 66.5s-99.667 -22.667 -125 -68s-38 -120.333 -38 -225v-43h327zM1200 513.999l-491.001 0.000976562c-0.666992 -10 -1.16699 -20.833 -1.5 -32.5s-0.5 -28.834 -0.5 -51.501c0 -107.333 16.833 -185 50.5 -233s87.834 -72 162.501 -72
c52.667 0 100.5 8.5 143.5 25.5s81.167 42.5 114.5 76.5v-172c-36.667 -27.333 -77 -48.166 -121 -62.499s-89.667 -21.5 -137 -21.5c-73.333 0 -134.833 13.667 -184.5 41s-85.167 67 -106.5 119c-26 -53.333 -61.167 -93.333 -105.5 -120s-98.833 -40 -163.5 -40
c-104 0 -183.167 28.667 -237.5 86s-81.5 140.666 -81.5 249.999c0 114 33.333 200.833 100 260.5s163.667 89.5 291 89.5h117v88c0 80 -16.5 141.333 -49.5 184s-80.833 64 -143.5 64c-37.333 0 -78 -7.16699 -122 -21.5s-86.667 -34.5 -128 -60.5v168
c51.333 23.333 99 40.5 143 51.5s86 16.5 126 16.5c60.667 0 111.667 -10.5 153 -31.5s74.333 -52.833 99 -95.5c22 40.667 55 72 99 94s95.667 33 155 33c116 0 198.167 -39.5 246.5 -118.5s72.5 -220.5 72.5 -424.5v-90z" />
    <glyph glyph-name="ccedilla" unicode="&#xe7;" 
d="M804 0c37.333 -41.333 64.833 -79.501 82.5 -114.501s26.5 -68.5 26.5 -100.5c0 -59.333 -20 -104.166 -60 -134.499s-99.333 -45.5 -178 -45.5c-30 0 -59.5 2 -88.5 6s-58.167 10 -87.5 18v131c22.667 -11.333 46.5 -19.5 71.5 -24.5s53.167 -7.5 84.5 -7.5
c38.667 0 68.167 8 88.5 24s30.5 39.333 30.5 70c0 20 -7.33301 44.5 -22 73.5s-36.667 63.833 -66 104.5h118zM1061 56.999c-49.333 -28.667 -100.167 -50.165 -152.5 -64.498s-105.833 -21.5 -160.5 -21.5c-173.333 0 -308.833 52 -406.5 156s-146.5 248 -146.5 432
s48.833 328 146.5 432s233.167 156 406.5 156c54 0 106.667 -7 158 -21s103 -35.667 155 -65v-193c-48.667 43.333 -97.5 74.666 -146.5 93.999s-104.5 29 -166.5 29c-115.333 0 -204 -37.333 -266 -112s-93 -181.334 -93 -320.001c0 -138 31.167 -244.5 93.5 -319.5
s150.833 -112.5 265.5 -112.5c64 0 121.333 9.83301 172 29.5s97.667 50.167 141 91.5v-191z" />
    <glyph glyph-name="egrave" unicode="&#xe8;" 
d="M1120 652v-89.998h-797v-6c-5.33301 -152.667 23.834 -262.334 87.501 -329.001s153.5 -100 269.5 -100c58.667 0 120 9.33301 184 28s132.333 47 205 85v-183c-70 -28.667 -137.5 -50.167 -202.5 -64.5s-127.833 -21.5 -188.5 -21.5c-174 0 -310 52.167 -408 156.5
s-147 248.166 -147 431.499c0 178.667 48 321.334 144 428.001s224 160 384 160c142.667 0 255.167 -48.333 337.5 -145s126.166 -213.334 131.499 -350.001zM936 706.002c-8 77.333 -36.168 144.167 -84.501 200.5s-117.833 84.5 -208.5 84.5
c-88.667 0 -161.667 -29.333 -219 -88s-88.666 -124.667 -93.999 -198zM490.999 1638l281 -376h-154l-325 376h198z" />
    <glyph glyph-name="eacute" unicode="&#xe9;" 
d="M1120 652v-89.998h-797v-6c-5.33301 -152.667 23.834 -262.334 87.501 -329.001s153.5 -100 269.5 -100c58.667 0 120 9.33301 184 28s132.333 47 205 85v-183c-70 -28.667 -137.5 -50.167 -202.5 -64.5s-127.833 -21.5 -188.5 -21.5c-174 0 -310 52.167 -408 156.5
s-147 248.166 -147 431.499c0 178.667 48 321.334 144 428.001s224 160 384 160c142.667 0 255.167 -48.333 337.5 -145s126.166 -213.334 131.499 -350.001zM936 706.002c-8 77.333 -36.168 144.167 -84.501 200.5s-117.833 84.5 -208.5 84.5
c-88.667 0 -161.667 -29.333 -219 -88s-88.666 -124.667 -93.999 -198zM769.999 1638h198l-325 -376h-154z" />
    <glyph glyph-name="ecircumflex" unicode="&#xea;" 
d="M1120 652v-89.998h-797v-6c-5.33301 -152.667 23.834 -262.334 87.501 -329.001s153.5 -100 269.5 -100c58.667 0 120 9.33301 184 28s132.333 47 205 85v-183c-70 -28.667 -137.5 -50.167 -202.5 -64.5s-127.833 -21.5 -188.5 -21.5c-174 0 -310 52.167 -408 156.5
s-147 248.166 -147 431.499c0 178.667 48 321.334 144 428.001s224 160 384 160c142.667 0 255.167 -48.333 337.5 -145s126.166 -213.334 131.499 -350.001zM936 706.002c-8 77.333 -36.168 144.167 -84.501 200.5s-117.833 84.5 -208.5 84.5
c-88.667 0 -161.667 -29.333 -219 -88s-88.666 -124.667 -93.999 -198zM556.999 1638h147l246 -376h-139l-181 245l-180 -245h-139z" />
    <glyph glyph-name="edieresis" unicode="&#xeb;" 
d="M1120 652v-89.998h-797v-6c-5.33301 -152.667 23.834 -262.334 87.501 -329.001s153.5 -100 269.5 -100c58.667 0 120 9.33301 184 28s132.333 47 205 85v-183c-70 -28.667 -137.5 -50.167 -202.5 -64.5s-127.833 -21.5 -188.5 -21.5c-174 0 -310 52.167 -408 156.5
s-147 248.166 -147 431.499c0 178.667 48 321.334 144 428.001s224 160 384 160c142.667 0 255.167 -48.333 337.5 -145s126.166 -213.334 131.499 -350.001zM936 706.002c-8 77.333 -36.168 144.167 -84.501 200.5s-117.833 84.5 -208.5 84.5
c-88.667 0 -161.667 -29.333 -219 -88s-88.666 -124.667 -93.999 -198zM332.999 1552h203v-202h-203v202zM724.999 1552h202v-202h-202v202z" />
    <glyph glyph-name="igrave" unicode="&#xec;" 
d="M256 1120h471v-977h365v-143h-914v143h365v834h-287v143zM477 1638l281 -376h-154l-325 376h198z" />
    <glyph glyph-name="iacute" unicode="&#xed;" 
d="M256 1120h471v-977h365v-143h-914v143h365v834h-287v143zM756 1638h198l-325 -376h-154z" />
    <glyph glyph-name="icircumflex" unicode="&#xee;" 
d="M256 1120h471v-977h365v-143h-914v143h365v834h-287v143zM543 1638h147l246 -376h-139l-181 245l-180 -245h-139z" />
    <glyph glyph-name="idieresis" unicode="&#xef;" 
d="M256 1120h471v-977h365v-143h-914v143h365v834h-287v143zM343 1552h203v-202h-203v202zM735 1552h202v-202h-202v202z" />
    <glyph glyph-name="eth" unicode="&#xf0;" 
d="M717 1327c131.333 -141.333 227.333 -275.334 288 -402.001s91 -256.667 91 -390c0 -178.667 -41.833 -317.334 -125.5 -416.001s-201.834 -148 -354.501 -148c-152 0 -269.833 49.333 -353.5 148s-125.5 237.334 -125.5 416.001c0 176.667 41.833 314.334 125.5 413.001
s200.167 148 349.5 148c22.667 0 39.834 -0.333008 51.501 -1s22.5 -1.66699 32.5 -3c-22 30 -45 59.833 -69 89.5l-74 88.5l-279 -92l-30 98l237 80l-182 200h219l127 -145l289 94l33 -98zM793 917.999c-23.333 8.66699 -48.667 15.166 -76 19.499s-56 6.5 -86 6.5
c-97.333 0 -171.5 -35 -222.5 -105s-76.5 -171.333 -76.5 -304c0 -130.667 24.667 -231.334 74 -302.001s119.333 -106 210 -106c91.333 0 161.666 35.333 210.999 106s74 171.334 74 302.001c0 73.333 -9.66699 143.833 -29 211.5s-45.666 124.834 -78.999 171.501z" />
    <glyph glyph-name="ntilde" unicode="&#xf1;" 
d="M1051 694l-0.000976562 -694h-185v694c0 100.667 -17.667 174.667 -53 222s-90.666 71 -165.999 71c-86 0 -152.167 -30.5 -198.5 -91.5s-69.5 -148.5 -69.5 -262.5v-633h-184v1120h184v-168c32.667 64 77 112.5 133 145.5s122.333 49.5 199 49.5
c114 0 199.167 -37.5 255.5 -112.5s84.5 -188.5 84.5 -340.5zM611.999 1370l-57 55c-14 13.333 -26.5 23.166 -37.5 29.499s-21.167 9.5 -30.5 9.5c-25.333 0 -44 -12.333 -56 -37s-18.667 -64 -20 -118h-124c0.666992 89.333 18 158.666 52 207.999s81.333 74 142 74
c26 0 49.667 -4.66699 71 -14s44.333 -25 69 -47l57 -55c14 -13.333 26.5 -23.166 37.5 -29.499s20.833 -9.5 29.5 -9.5c26 0 45 12.333 57 37s18.333 64 19 118h125c-0.666992 -89.333 -18 -158.666 -52 -207.999s-81.333 -74 -142 -74c-26 0 -49.667 4.66699 -71 14
s-44.333 25 -69 47z" />
    <glyph glyph-name="ograve" unicode="&#xf2;" 
d="M616 991c-93.333 0 -164 -36.333 -212 -109s-72 -180.334 -72 -323.001c0 -142 24 -249.5 72 -322.5s118.667 -109.5 212 -109.5c94 0 165 36.5 213 109.5s72 180.5 72 322.5c0 142.667 -24 250.334 -72 323.001s-119 109 -213 109zM616 1147
c155.333 0 274.167 -50.333 356.5 -151s123.5 -246.334 123.5 -437.001c0 -191.333 -41 -337.166 -123 -437.499s-201 -150.5 -357 -150.5c-155.333 0 -274 50.167 -356 150.5s-123 246.166 -123 437.499c0 190.667 41 336.334 123 437.001s200.667 151 356 151z
M477.001 1638l281 -376h-154l-325 376h198z" />
    <glyph glyph-name="oacute" unicode="&#xf3;" 
d="M616 991c-93.333 0 -164 -36.333 -212 -109s-72 -180.334 -72 -323.001c0 -142 24 -249.5 72 -322.5s118.667 -109.5 212 -109.5c94 0 165 36.5 213 109.5s72 180.5 72 322.5c0 142.667 -24 250.334 -72 323.001s-119 109 -213 109zM616 1147
c155.333 0 274.167 -50.333 356.5 -151s123.5 -246.334 123.5 -437.001c0 -191.333 -41 -337.166 -123 -437.499s-201 -150.5 -357 -150.5c-155.333 0 -274 50.167 -356 150.5s-123 246.166 -123 437.499c0 190.667 41 336.334 123 437.001s200.667 151 356 151z
M756.001 1638h198l-325 -376h-154z" />
    <glyph glyph-name="ocircumflex" unicode="&#xf4;" 
d="M616 991c-93.333 0 -164 -36.333 -212 -109s-72 -180.334 -72 -323.001c0 -142 24 -249.5 72 -322.5s118.667 -109.5 212 -109.5c94 0 165 36.5 213 109.5s72 180.5 72 322.5c0 142.667 -24 250.334 -72 323.001s-119 109 -213 109zM616 1147
c155.333 0 274.167 -50.333 356.5 -151s123.5 -246.334 123.5 -437.001c0 -191.333 -41 -337.166 -123 -437.499s-201 -150.5 -357 -150.5c-155.333 0 -274 50.167 -356 150.5s-123 246.166 -123 437.499c0 190.667 41 336.334 123 437.001s200.667 151 356 151z
M543.001 1638h147l246 -376h-139l-181 245l-180 -245h-139z" />
    <glyph glyph-name="otilde" unicode="&#xf5;" 
d="M616 991c-93.333 0 -164 -36.333 -212 -109s-72 -180.334 -72 -323.001c0 -142 24 -249.5 72 -322.5s118.667 -109.5 212 -109.5c94 0 165 36.5 213 109.5s72 180.5 72 322.5c0 142.667 -24 250.334 -72 323.001s-119 109 -213 109zM616 1147
c155.333 0 274.167 -50.333 356.5 -151s123.5 -246.334 123.5 -437.001c0 -191.333 -41 -337.166 -123 -437.499s-201 -150.5 -357 -150.5c-155.333 0 -274 50.167 -356 150.5s-123 246.166 -123 437.499c0 190.667 41 336.334 123 437.001s200.667 151 356 151z
M612.001 1370l-57 55c-14 13.333 -26.5 23.166 -37.5 29.499s-21.167 9.5 -30.5 9.5c-25.333 0 -44 -12.333 -56 -37s-18.667 -64 -20 -118h-124c0.666992 89.333 18 158.666 52 207.999s81.333 74 142 74c26 0 49.667 -4.66699 71 -14s44.333 -25 69 -47l57 -55
c14 -13.333 26.5 -23.166 37.5 -29.499s20.833 -9.5 29.5 -9.5c26 0 45 12.333 57 37s18.333 64 19 118h125c-0.666992 -89.333 -18 -158.666 -52 -207.999s-81.333 -74 -142 -74c-26 0 -49.667 4.66699 -71 14s-44.333 25 -69 47z" />
    <glyph glyph-name="odieresis" unicode="&#xf6;" 
d="M616 991c-93.333 0 -164 -36.333 -212 -109s-72 -180.334 -72 -323.001c0 -142 24 -249.5 72 -322.5s118.667 -109.5 212 -109.5c94 0 165 36.5 213 109.5s72 180.5 72 322.5c0 142.667 -24 250.334 -72 323.001s-119 109 -213 109zM616 1147
c155.333 0 274.167 -50.333 356.5 -151s123.5 -246.334 123.5 -437.001c0 -191.333 -41 -337.166 -123 -437.499s-201 -150.5 -357 -150.5c-155.333 0 -274 50.167 -356 150.5s-123 246.166 -123 437.499c0 190.667 41 336.334 123 437.001s200.667 151 356 151z
M319.001 1552h203v-202h-203v202zM711.001 1552h202v-202h-202v202z" />
    <glyph glyph-name="divide" unicode="&#xf7;" 
d="M494 395h245v-245h-245v245zM494 1135h245v-246h-245v246zM88 727h1057v-170h-1057v170z" />
    <glyph glyph-name="oslash" unicode="&#xf8;" 
d="M877 780l-463 -559c24 -31.333 52.833 -54.833 86.5 -70.5s72.167 -23.5 115.5 -23.5c94 0 165 36.5 213 109.5s72 180.5 72 322.5c0 34.667 -2 70.5 -6 107.5s-10 74.833 -18 113.5zM817 897c-23.333 32 -51.499 55.667 -84.499 71s-71.833 23 -116.5 23
c-92.667 0 -163.834 -35.667 -213.501 -107s-74.5 -174.333 -74.5 -309c0 -32 2.33301 -67.333 7 -106s11.667 -81.667 21 -129zM217.001 180c-26 47.333 -45.834 103.496 -59.501 168.496s-20.5 135.167 -20.5 210.5c0 190.667 41 336.334 123 437.001s200.667 151 356 151
c66.667 0 126.334 -9.16699 179.001 -27.5s99 -46.166 139 -83.499l147 176l93 -77l-164 -195c28 -44 49.333 -98.167 64 -162.5s22 -137.166 22 -218.499c0 -191.333 -41 -337.166 -123 -437.499s-201 -150.5 -357 -150.5c-68.667 0 -129.167 9.83301 -181.5 29.5
s-97.5 49.5 -135.5 89.5l-160 -186l-92 76z" />
    <glyph glyph-name="ugrave" unicode="&#xf9;" 
d="M195 424l-0.00195312 694h184v-694c0 -100.667 17.833 -174.667 53.5 -222s90.834 -71 165.501 -71c86.667 0 153 30.5 199 91.5s69 148.5 69 262.5v633h185v-1118h-185v168c-32.667 -64.667 -77.167 -113.667 -133.5 -147s-122.166 -50 -197.499 -50
c-114.667 0 -200 37.5 -256 112.5s-84 188.5 -84 340.5zM476.998 1638l281 -376h-154l-325 376h198z" />
    <glyph glyph-name="uacute" unicode="&#xfa;" 
d="M195 424l-0.00195312 694h184v-694c0 -100.667 17.833 -174.667 53.5 -222s90.834 -71 165.501 -71c86.667 0 153 30.5 199 91.5s69 148.5 69 262.5v633h185v-1118h-185v168c-32.667 -64.667 -77.167 -113.667 -133.5 -147s-122.166 -50 -197.499 -50
c-114.667 0 -200 37.5 -256 112.5s-84 188.5 -84 340.5zM755.998 1638h198l-325 -376h-154z" />
    <glyph glyph-name="ucircumflex" unicode="&#xfb;" 
d="M195 424l-0.00195312 694h184v-694c0 -100.667 17.833 -174.667 53.5 -222s90.834 -71 165.501 -71c86.667 0 153 30.5 199 91.5s69 148.5 69 262.5v633h185v-1118h-185v168c-32.667 -64.667 -77.167 -113.667 -133.5 -147s-122.166 -50 -197.499 -50
c-114.667 0 -200 37.5 -256 112.5s-84 188.5 -84 340.5zM542.998 1638h147l246 -376h-139l-181 245l-180 -245h-139z" />
    <glyph glyph-name="udieresis" unicode="&#xfc;" 
d="M195 424l-0.00195312 694h184v-694c0 -100.667 17.833 -174.667 53.5 -222s90.834 -71 165.501 -71c86.667 0 153 30.5 199 91.5s69 148.5 69 262.5v633h185v-1118h-185v168c-32.667 -64.667 -77.167 -113.667 -133.5 -147s-122.166 -50 -197.499 -50
c-114.667 0 -200 37.5 -256 112.5s-84 188.5 -84 340.5zM318.998 1552h203v-202h-203v202zM710.998 1552h202v-202h-202v202z" />
    <glyph glyph-name="yacute" unicode="&#xfd;" 
d="M858 360l-117 -308c-66 -176 -110.333 -283.333 -133 -322c-30.667 -52 -69 -91 -115 -117s-99.667 -39 -161 -39h-148v154h109c54 0 96.333 15.667 127 47s69.667 112.333 117 243l-433 1102h195l332 -876l327 876h195zM756 1638h198l-325 -376h-154z" />
    <glyph glyph-name="thorn" unicode="&#xfe;" 
d="M375 141v-567h-185v1993h185v-590c30.667 55.333 71.5 97.5 122.5 126.5s109.833 43.5 176.5 43.5c135.333 0 241.5 -52.333 318.5 -157s115.5 -249.667 115.5 -435c0 -182 -38.667 -324.833 -116 -428.5s-183.333 -155.5 -318 -155.5c-68 0 -127.5 14.5 -178.5 43.5
s-91.167 71.167 -120.5 126.5zM915 559c0 142.667 -22.5 250.331 -67.5 322.998s-111.833 109 -200.5 109c-89.333 0 -157 -36.5 -203 -109.5s-69 -180.5 -69 -322.5c0 -141.333 23 -248.666 69 -321.999s113.667 -110 203 -110c88.667 0 155.5 36.333 200.5 109
s67.5 180.334 67.5 323.001z" />
    <glyph glyph-name="ydieresis" unicode="&#xff;" 
d="M858 360l-117 -308c-66 -176 -110.333 -283.333 -133 -322c-30.667 -52 -69 -91 -115 -117s-99.667 -39 -161 -39h-148v154h109c54 0 96.333 15.667 127 47s69.667 112.333 117 243l-433 1102h195l332 -876l327 876h195zM319 1552h203v-202h-203v202zM711 1552h202v-202
h-202v202z" />
    <glyph glyph-name="Amacron" unicode="&#x100;" 
d="M317 1840h598v-148h-598v148zM616 1315l-213 -764h426zM494 1493h245l457 -1493h-209l-110 389h-523l-108 -389h-209z" />
    <glyph glyph-name="amacron" unicode="&#x101;" 
d="M317 1526h598v-148h-598v148zM702 563h-61.001c-107.333 0 -188.166 -18.833 -242.499 -56.5s-81.5 -93.834 -81.5 -168.501c0 -67.333 20.333 -119.666 61 -156.999s97 -56 169 -56c101.333 0 181 35.167 239 105.5s87.333 167.5 88 291.5v41h-172zM1059 639
l-0.000976562 -638.999h-185v166c-39.333 -66.667 -88.833 -115.834 -148.5 -147.501s-132.167 -47.5 -217.5 -47.5c-114 0 -205 32.167 -273 96.5s-102 150.5 -102 258.5c0 124.667 41.833 219.334 125.5 284.001s206.5 97 368.5 97h247v29
c-0.666992 89.333 -23.334 154.166 -68.001 194.499s-116 60.5 -214 60.5c-62.667 0 -126 -9 -190 -27s-126.333 -44.333 -187 -79v184c68 26 133.167 45.5 195.5 58.5s122.833 19.5 181.5 19.5c92.667 0 171.834 -13.667 237.501 -41s118.834 -68.333 159.501 -123
c25.333 -33.333 43.333 -74.5 54 -123.5s16 -122.5 16 -220.5z" />
    <glyph glyph-name="Abreve" unicode="&#x102;" 
d="M303 1901l119.001 0.000976562c8 -36 28.667 -63.5 62 -82.5s77.333 -28.5 132 -28.5c55.333 0 99.166 9.16699 131.499 27.5s53.5 46.166 63.5 83.499h119c-7.33301 -79.333 -37.5 -139.5 -90.5 -180.5s-127.5 -61.5 -223.5 -61.5s-170.333 20.333 -223 61
s-82.667 101 -90 181zM616.001 1315l-213 -764h426zM494.001 1493h245l457 -1493h-209l-110 389h-523l-108 -389h-209z" />
    <glyph glyph-name="abreve" unicode="&#x103;" 
d="M303 1608h119.001c7.33301 -50.667 27 -88.334 59 -113.001s77 -37 135 -37c56.667 0 101 12.333 133 37s52.667 62.334 62 113.001h119c-7.33301 -95.333 -37.333 -167 -90 -215s-127.334 -72 -224.001 -72c-96 0 -170.333 24 -223 72s-82.667 119.667 -90 215z
M702.001 563h-61.001c-107.333 0 -188.166 -18.833 -242.499 -56.5s-81.5 -93.834 -81.5 -168.501c0 -67.333 20.333 -119.666 61 -156.999s97 -56 169 -56c101.333 0 181 35.167 239 105.5s87.333 167.5 88 291.5v41h-172zM1059 639l-0.000976562 -638.999h-185v166
c-39.333 -66.667 -88.833 -115.834 -148.5 -147.501s-132.167 -47.5 -217.5 -47.5c-114 0 -205 32.167 -273 96.5s-102 150.5 -102 258.5c0 124.667 41.833 219.334 125.5 284.001s206.5 97 368.5 97h247v29c-0.666992 89.333 -23.334 154.166 -68.001 194.499
s-116 60.5 -214 60.5c-62.667 0 -126 -9 -190 -27s-126.333 -44.333 -187 -79v184c68 26 133.167 45.5 195.5 58.5s122.833 19.5 181.5 19.5c92.667 0 171.834 -13.667 237.501 -41s118.834 -68.333 159.501 -123c25.333 -33.333 43.333 -74.5 54 -123.5
s16 -122.5 16 -220.5z" />
    <glyph glyph-name="Aogonek" unicode="&#x104;" 
d="M983 0h118.997c-30 -40.667 -52.167 -75.667 -66.5 -105s-21.5 -54.333 -21.5 -75c0 -30.667 9.16699 -53.667 27.5 -69s45.5 -23 81.5 -23c21.333 0 42.333 2.5 63 7.5s41.334 12.5 62.001 22.5v-133c-25.333 -6.66699 -49.333 -11.667 -72 -15s-44 -5 -64 -5
c-81.333 0 -141.166 14.5 -179.499 43.5s-57.5 74.5 -57.5 136.5c0 32 8.83301 65.5 26.5 100.5s44.834 73.167 81.501 114.5zM615.997 1315l-213 -764h426zM493.997 1493h245l457 -1493h-209l-110 389h-523l-108 -389h-209z" />
    <glyph glyph-name="aogonek" unicode="&#x105;" 
d="M873 0h118.997c-30 -40.667 -52.167 -75.667 -66.5 -105s-21.5 -54.333 -21.5 -75c0 -30.667 9.16699 -53.667 27.5 -69s45.5 -23 81.5 -23c21.333 0 42.333 2.5 63 7.5s41.334 12.5 62.001 22.5v-133c-25.333 -6.66699 -49.333 -11.667 -72 -15s-44 -5 -64 -5
c-81.333 0 -141.166 14.5 -179.499 43.5s-57.5 74.5 -57.5 136.5c0 32 8.83301 65.5 26.5 100.5s44.834 73.167 81.501 114.5zM701.997 563h-61.001c-107.333 0 -188.166 -18.833 -242.499 -56.5s-81.5 -93.834 -81.5 -168.501c0 -67.333 20.333 -119.666 61 -156.999
s97 -56 169 -56c101.333 0 181 35.167 239 105.5s87.333 167.5 88 291.5v41h-172zM1059 639l-0.000976562 -638.999h-185v166c-39.333 -66.667 -88.833 -115.834 -148.5 -147.501s-132.167 -47.5 -217.5 -47.5c-114 0 -205 32.167 -273 96.5s-102 150.5 -102 258.5
c0 124.667 41.833 219.334 125.5 284.001s206.5 97 368.5 97h247v29c-0.666992 89.333 -23.334 154.166 -68.001 194.499s-116 60.5 -214 60.5c-62.667 0 -126 -9 -190 -27s-126.333 -44.333 -187 -79v184c68 26 133.167 45.5 195.5 58.5s122.833 19.5 181.5 19.5
c92.667 0 171.834 -13.667 237.501 -41s118.834 -68.333 159.501 -123c25.333 -33.333 43.333 -74.5 54 -123.5s16 -122.5 16 -220.5z" />
    <glyph glyph-name="Cacute" unicode="&#x106;" 
d="M1073 53c-51.333 -27.333 -104 -47.832 -158 -61.499s-111.333 -20.5 -172 -20.5c-191.333 0 -339.833 67.667 -445.5 203s-158.5 325.666 -158.5 570.999c0 244 53.167 434.167 159.5 570.5s254.5 204.5 444.5 204.5c60.667 0 118 -6.83301 172 -20.5
s106.667 -34.167 158 -61.5v-207c-49.333 40.667 -102.333 71.667 -159 93s-113.667 32 -171 32c-131.333 0 -229.666 -50.667 -294.999 -152s-98 -254.333 -98 -459c0 -204 32.667 -356.667 98 -458s163.666 -152 294.999 -152c58.667 0 116.167 10.667 172.5 32
s108.833 52.333 157.5 93v-207zM762 1899h186l-229 -264h-154z" />
    <glyph glyph-name="cacute" unicode="&#x107;" 
d="M1061 57c-49.333 -28.667 -100.167 -50.165 -152.5 -64.498s-105.833 -21.5 -160.5 -21.5c-173.333 0 -308.833 52 -406.5 156s-146.5 248 -146.5 432s48.833 328 146.5 432s233.167 156 406.5 156c54 0 106.667 -7 158 -21s103 -35.667 155 -65v-193
c-48.667 43.333 -97.5 74.666 -146.5 93.999s-104.5 29 -166.5 29c-115.333 0 -204 -37.333 -266 -112s-93 -181.334 -93 -320.001c0 -138 31.167 -244.5 93.5 -319.5s150.833 -112.5 265.5 -112.5c64 0 121.333 9.83301 172 29.5s97.667 50.167 141 91.5v-191z
M845.999 1638h198l-325 -376h-154z" />
    <glyph glyph-name="Ccircumflex" unicode="&#x108;" 
d="M648 1908h189l211 -266h-140l-166 178l-165 -178h-140zM1073 53c-51.333 -27.333 -104 -47.832 -158 -61.499s-111.333 -20.5 -172 -20.5c-191.333 0 -339.833 67.667 -445.5 203s-158.5 325.666 -158.5 570.999c0 244 53.167 434.167 159.5 570.5
s254.5 204.5 444.5 204.5c60.667 0 118 -6.83301 172 -20.5s106.667 -34.167 158 -61.5v-207c-49.333 40.667 -102.333 71.667 -159 93s-113.667 32 -171 32c-131.333 0 -229.666 -50.667 -294.999 -152s-98 -254.333 -98 -459c0 -204 32.667 -356.667 98 -458
s163.666 -152 294.999 -152c58.667 0 116.167 10.667 172.5 32s108.833 52.333 157.5 93v-207z" />
    <glyph glyph-name="ccircumflex" unicode="&#x109;" 
d="M633 1638h147l246 -376h-139l-181 245l-180 -245h-139zM1061 57c-49.333 -28.667 -100.167 -50.165 -152.5 -64.498s-105.833 -21.5 -160.5 -21.5c-173.333 0 -308.833 52 -406.5 156s-146.5 248 -146.5 432s48.833 328 146.5 432s233.167 156 406.5 156
c54 0 106.667 -7 158 -21s103 -35.667 155 -65v-193c-48.667 43.333 -97.5 74.666 -146.5 93.999s-104.5 29 -166.5 29c-115.333 0 -204 -37.333 -266 -112s-93 -181.334 -93 -320.001c0 -138 31.167 -244.5 93.5 -319.5s150.833 -112.5 265.5 -112.5
c64 0 121.333 9.83301 172 29.5s97.667 50.167 141 91.5v-191z" />
    <glyph glyph-name="Cdotaccent" unicode="&#x10a;" 
d="M588 1872h205v-205h-205v205zM1073 53c-51.333 -27.333 -104 -47.832 -158 -61.499s-111.333 -20.5 -172 -20.5c-191.333 0 -339.833 67.667 -445.5 203s-158.5 325.666 -158.5 570.999c0 244 53.167 434.167 159.5 570.5s254.5 204.5 444.5 204.5
c60.667 0 118 -6.83301 172 -20.5s106.667 -34.167 158 -61.5v-207c-49.333 40.667 -102.333 71.667 -159 93s-113.667 32 -171 32c-131.333 0 -229.666 -50.667 -294.999 -152s-98 -254.333 -98 -459c0 -204 32.667 -356.667 98 -458s163.666 -152 294.999 -152
c58.667 0 116.167 10.667 172.5 32s108.833 52.333 157.5 93v-207z" />
    <glyph glyph-name="cdotaccent" unicode="&#x10b;" 
d="M588 1552h205v-204h-205v204zM1061 57c-49.333 -28.667 -100.167 -50.165 -152.5 -64.498s-105.833 -21.5 -160.5 -21.5c-173.333 0 -308.833 52 -406.5 156s-146.5 248 -146.5 432s48.833 328 146.5 432s233.167 156 406.5 156c54 0 106.667 -7 158 -21
s103 -35.667 155 -65v-193c-48.667 43.333 -97.5 74.666 -146.5 93.999s-104.5 29 -166.5 29c-115.333 0 -204 -37.333 -266 -112s-93 -181.334 -93 -320.001c0 -138 31.167 -244.5 93.5 -319.5s150.833 -112.5 265.5 -112.5c64 0 121.333 9.83301 172 29.5
s97.667 50.167 141 91.5v-191z" />
    <glyph glyph-name="Ccaron" unicode="&#x10c;" 
d="M1073 53c-51.333 -27.333 -104 -47.832 -158 -61.499s-111.333 -20.5 -172 -20.5c-191.333 0 -339.833 67.667 -445.5 203s-158.5 325.666 -158.5 570.999c0 244 53.167 434.167 159.5 570.5s254.5 204.5 444.5 204.5c60.667 0 118 -6.83301 172 -20.5
s106.667 -34.167 158 -61.5v-207c-49.333 40.667 -102.333 71.667 -159 93s-113.667 32 -171 32c-131.333 0 -229.666 -50.667 -294.999 -152s-98 -254.333 -98 -459c0 -204 32.667 -356.667 98 -458s163.666 -152 294.999 -152c58.667 0 116.167 10.667 172.5 32
s108.833 52.333 157.5 93v-207zM612 1635l-211 266h140l165 -178l166 178h140l-211 -266h-189z" />
    <glyph glyph-name="ccaron" unicode="&#x10d;" 
d="M1061 57c-49.333 -28.667 -100.167 -50.165 -152.5 -64.498s-105.833 -21.5 -160.5 -21.5c-173.333 0 -308.833 52 -406.5 156s-146.5 248 -146.5 432s48.833 328 146.5 432s233.167 156 406.5 156c54 0 106.667 -7 158 -21s103 -35.667 155 -65v-193
c-48.667 43.333 -97.5 74.666 -146.5 93.999s-104.5 29 -166.5 29c-115.333 0 -204 -37.333 -266 -112s-93 -181.334 -93 -320.001c0 -138 31.167 -244.5 93.5 -319.5s150.833 -112.5 265.5 -112.5c64 0 121.333 9.83301 172 29.5s97.667 50.167 141 91.5v-191z
M632.999 1262l-246 376h139l180 -245l181 245h139l-246 -376h-147z" />
    <glyph glyph-name="Dcaron" unicode="&#x10e;" 
d="M436 166c170 0 288.667 41.8311 356 125.498s101 234.834 101 453.501c0 220.667 -33.5 372.834 -100.5 456.501s-185.833 125.5 -356.5 125.5h-96v-1161h96zM440 1493c228 0 396 -60.667 504 -182s162 -310 162 -566c0 -254.667 -54 -442.5 -162 -563.5
s-276 -181.5 -504 -181.5h-303v1493h303zM445 1629l-211 266h140l165 -178l166 178h140l-211 -266h-189z" />
    <glyph glyph-name="dcaron" unicode="&#x10f;" 
d="M1114 1558h198l-113 -376h-154zM858 977l0.00195312 579h184v-1556h-184v141c-30.667 -55.333 -71.5 -97.5 -122.5 -126.5s-109.833 -43.5 -176.5 -43.5c-135.333 0 -241.833 52.5 -319.5 157.5s-116.5 249.833 -116.5 434.5c0 182 39 324.833 117 428.5
s184.333 155.5 319 155.5c67.333 0 126.666 -14.5 177.999 -43.5s91.666 -71.167 120.999 -126.5zM317.002 559c0 -142.667 22.667 -250.331 68 -322.998s112.333 -109 201 -109s156.167 36.667 202.5 110s69.5 180.666 69.5 321.999c0 142 -23.167 249.5 -69.5 322.5
s-113.833 109.5 -202.5 109.5s-155.667 -36.333 -201 -109s-68 -180.334 -68 -323.001z" />
    <glyph glyph-name="Dcroat" unicode="&#x110;" 
d="M436 1493c228 0 395.999 -60.667 503.999 -182s162 -310 162 -566c0 -254.667 -54.167 -442.5 -162.5 -563.5s-276.166 -181.5 -503.499 -181.5h-303v709h-125v149h125v635h303zM435.999 166c170 0 288.667 41.8311 356 125.498s101 234.834 101 453.501
c0 220.667 -33.5 372.834 -100.5 456.501s-185.833 125.5 -356.5 125.5h-96v-469h264v-149h-264v-543h96z" />
    <glyph glyph-name="dcroat" unicode="&#x111;" 
d="M858 977l0.00195312 309h-305v121h305v149h184v-149h191v-121h-191v-1286h-184v141c-30.667 -55.333 -71.5 -97.5 -122.5 -126.5s-109.833 -43.5 -176.5 -43.5c-135.333 0 -241.833 52.5 -319.5 157.5s-116.5 249.833 -116.5 434.5c0 182 39 324.833 117 428.5
s184.333 155.5 319 155.5c67.333 0 126.666 -14.5 177.999 -43.5s91.666 -71.167 120.999 -126.5zM317.002 559c0 -142.667 22.667 -250.331 68 -322.998s112.333 -109 201 -109s156.167 36.667 202.5 110s69.5 180.666 69.5 321.999c0 142 -23.167 249.5 -69.5 322.5
s-113.833 109.5 -202.5 109.5s-155.667 -36.333 -201 -109s-68 -180.334 -68 -323.001z" />
    <glyph glyph-name="Emacron" unicode="&#x112;" 
d="M335 1840h598v-148h-598v148zM197 1493h886v-170h-684v-402h654v-170h-654v-581h703v-170h-905v1493z" />
    <glyph glyph-name="emacron" unicode="&#x113;" 
d="M352 1526h598v-148h-598v148zM1120 652v-89.998h-797v-6c-5.33301 -152.667 23.834 -262.334 87.501 -329.001s153.5 -100 269.5 -100c58.667 0 120 9.33301 184 28s132.333 47 205 85v-183c-70 -28.667 -137.5 -50.167 -202.5 -64.5s-127.833 -21.5 -188.5 -21.5
c-174 0 -310 52.167 -408 156.5s-147 248.166 -147 431.499c0 178.667 48 321.334 144 428.001s224 160 384 160c142.667 0 255.167 -48.333 337.5 -145s126.166 -213.334 131.499 -350.001zM936 706.002c-8 77.333 -36.168 144.167 -84.501 200.5
s-117.833 84.5 -208.5 84.5c-88.667 0 -161.667 -29.333 -219 -88s-88.666 -124.667 -93.999 -198z" />
    <glyph glyph-name="Ebreve" unicode="&#x114;" 
d="M321 1901l119.001 0.000976562c8 -36 28.667 -63.5 62 -82.5s77.333 -28.5 132 -28.5c55.333 0 99.166 9.16699 131.499 27.5s53.5 46.166 63.5 83.499h119c-7.33301 -79.333 -37.5 -139.5 -90.5 -180.5s-127.5 -61.5 -223.5 -61.5s-170.333 20.333 -223 61
s-82.667 101 -90 181zM197.001 1493h886v-170h-684v-402h654v-170h-654v-581h703v-170h-905v1493z" />
    <glyph glyph-name="ebreve" unicode="&#x115;" 
d="M317 1608h119.001c7.33301 -50.667 27 -88.334 59 -113.001s77 -37 135 -37c56.667 0 101 12.333 133 37s52.667 62.334 62 113.001h119c-7.33301 -95.333 -37.333 -167 -90 -215s-127.334 -72 -224.001 -72c-96 0 -170.333 24 -223 72s-82.667 119.667 -90 215z
M1120 652v-89.998h-797v-6c-5.33301 -152.667 23.834 -262.334 87.501 -329.001s153.5 -100 269.5 -100c58.667 0 120 9.33301 184 28s132.333 47 205 85v-183c-70 -28.667 -137.5 -50.167 -202.5 -64.5s-127.833 -21.5 -188.5 -21.5c-174 0 -310 52.167 -408 156.5
s-147 248.166 -147 431.499c0 178.667 48 321.334 144 428.001s224 160 384 160c142.667 0 255.167 -48.333 337.5 -145s126.166 -213.334 131.499 -350.001zM936.001 706.002c-8 77.333 -36.168 144.167 -84.501 200.5s-117.833 84.5 -208.5 84.5
c-88.667 0 -161.667 -29.333 -219 -88s-88.666 -124.667 -93.999 -198z" />
    <glyph glyph-name="Edotaccent" unicode="&#x116;" 
d="M531 1872h205v-205h-205v205zM197 1493h886v-170h-684v-402h654v-170h-654v-581h703v-170h-905v1493z" />
    <glyph glyph-name="edotaccent" unicode="&#x117;" 
d="M527 1552h205v-204h-205v204zM1120 652v-89.998h-797v-6c-5.33301 -152.667 23.834 -262.334 87.501 -329.001s153.5 -100 269.5 -100c58.667 0 120 9.33301 184 28s132.333 47 205 85v-183c-70 -28.667 -137.5 -50.167 -202.5 -64.5s-127.833 -21.5 -188.5 -21.5
c-174 0 -310 52.167 -408 156.5s-147 248.166 -147 431.499c0 178.667 48 321.334 144 428.001s224 160 384 160c142.667 0 255.167 -48.333 337.5 -145s126.166 -213.334 131.499 -350.001zM936 706.002c-8 77.333 -36.168 144.167 -84.501 200.5
s-117.833 84.5 -208.5 84.5c-88.667 0 -161.667 -29.333 -219 -88s-88.666 -124.667 -93.999 -198z" />
    <glyph glyph-name="Eogonek" unicode="&#x118;" 
d="M833 0h118.997c-30 -40.667 -52.167 -75.667 -66.5 -105s-21.5 -54.333 -21.5 -75c0 -30.667 9.16699 -53.667 27.5 -69s45.5 -23 81.5 -23c21.333 0 42.333 2.5 63 7.5s41.334 12.5 62.001 22.5v-133c-25.333 -6.66699 -49.333 -11.667 -72 -15s-44 -5 -64 -5
c-81.333 0 -141.166 14.5 -179.499 43.5s-57.5 74.5 -57.5 136.5c0 32 8.83301 65.5 26.5 100.5s44.834 73.167 81.501 114.5zM196.997 1493h886v-170h-684v-402h654v-170h-654v-581h703v-170h-905v1493z" />
    <glyph glyph-name="eogonek" unicode="&#x119;" 
d="M774 0h118.997c-30 -40.667 -52.167 -75.667 -66.5 -105s-21.5 -54.333 -21.5 -75c0 -30.667 9.16699 -53.667 27.5 -69s45.5 -23 81.5 -23c21.333 0 42.333 2.5 63 7.5s41.334 12.5 62.001 22.5v-133c-25.333 -6.66699 -49.333 -11.667 -72 -15s-44 -5 -64 -5
c-81.333 0 -141.166 14.5 -179.499 43.5s-57.5 74.5 -57.5 136.5c0 32 8.83301 65.5 26.5 100.5s44.834 73.167 81.501 114.5zM1120 652v-89.998h-797v-6c-5.33301 -152.667 23.834 -262.334 87.501 -329.001s153.5 -100 269.5 -100c58.667 0 120 9.33301 184 28
s132.333 47 205 85v-183c-70 -28.667 -137.5 -50.167 -202.5 -64.5s-127.833 -21.5 -188.5 -21.5c-174 0 -310 52.167 -408 156.5s-147 248.166 -147 431.499c0 178.667 48 321.334 144 428.001s224 160 384 160c142.667 0 255.167 -48.333 337.5 -145
s126.166 -213.334 131.499 -350.001zM935.997 706.002c-8 77.333 -36.168 144.167 -84.501 200.5s-117.833 84.5 -208.5 84.5c-88.667 0 -161.667 -29.333 -219 -88s-88.666 -124.667 -93.999 -198z" />
    <glyph glyph-name="Ecaron" unicode="&#x11a;" 
d="M197 1493h886v-170h-684v-402h654v-170h-654v-581h703v-170h-905v1493zM558 1629l-211 266h140l165 -178l166 178h140l-211 -266h-189z" />
    <glyph glyph-name="ecaron" unicode="&#x11b;" 
d="M1120 652v-89.998h-797v-6c-5.33301 -152.667 23.834 -262.334 87.501 -329.001s153.5 -100 269.5 -100c58.667 0 120 9.33301 184 28s132.333 47 205 85v-183c-70 -28.667 -137.5 -50.167 -202.5 -64.5s-127.833 -21.5 -188.5 -21.5c-174 0 -310 52.167 -408 156.5
s-147 248.166 -147 431.499c0 178.667 48 321.334 144 428.001s224 160 384 160c142.667 0 255.167 -48.333 337.5 -145s126.166 -213.334 131.499 -350.001zM936 706.002c-8 77.333 -36.168 144.167 -84.501 200.5s-117.833 84.5 -208.5 84.5
c-88.667 0 -161.667 -29.333 -219 -88s-88.666 -124.667 -93.999 -198zM577.999 1258l-246 376h139l180 -245l181 245h139l-246 -376h-147z" />
    <glyph glyph-name="Gcircumflex" unicode="&#x11c;" 
d="M522 1901h189l211 -266h-140l-166 178l-165 -178h-140zM1104 123c-54 -50 -114.833 -87.833 -182.5 -113.5s-140.834 -38.5 -219.501 -38.5c-189.333 0 -336.666 67.833 -441.999 203.5s-158 325.834 -158 570.501c0 244 53.333 434.167 160 570.5s255 204.5 445 204.5
c62.667 0 122.667 -8.83301 180 -26.5s112.666 -44.5 165.999 -80.5v-207c-54 51.333 -109.333 89.166 -166 113.499s-116.667 36.5 -180 36.5c-131.333 0 -229.833 -50.833 -295.5 -152.5s-98.5 -254.5 -98.5 -458.5c0 -207.333 31.833 -360.833 95.5 -460.5
s161.5 -149.5 293.5 -149.5c44.667 0 83.834 5.16699 117.501 15.5s64.167 26.5 91.5 48.5v401h-217v166h410v-643z" />
    <glyph glyph-name="gcircumflex" unicode="&#x11d;" 
d="M543 1638h147l246 -376h-139l-181 245l-180 -245h-139zM858 569c0 138 -22.501 242.833 -67.501 314.5s-110.5 107.5 -196.5 107.5c-90 0 -158.667 -35.833 -206 -107.5s-71 -176.5 -71 -314.5s23.833 -243.167 71.5 -315.5s116.834 -108.5 207.501 -108.5
c84.667 0 149.5 36.333 194.5 109s67.5 177.667 67.5 315zM1042 72c0 -168 -39.665 -295.331 -118.998 -381.998s-196 -130 -350 -130c-50.667 0 -103.667 4.66699 -159 14s-110.666 23 -165.999 41v182c65.333 -30.667 124.666 -53.334 177.999 -68.001
s102.333 -22 147 -22c99.333 0 171.666 27 216.999 81s68 139.667 68 257v8v125c-29.333 -62.667 -69.333 -109.334 -120 -140.001s-112.334 -46 -185.001 -46c-130.667 0 -235 52.333 -313 157s-117 244.667 -117 420c0 176 39 316.333 117 421s182.333 157 313 157
c72 0 133 -14.333 183 -43s90.667 -73 122 -133v145h184v-1044z" />
    <glyph glyph-name="Gbreve" unicode="&#x11e;" 
d="M353 1901l119.001 0.000976562c8 -36 28.667 -63.5 62 -82.5s77.333 -28.5 132 -28.5c55.333 0 99.166 9.16699 131.499 27.5s53.5 46.166 63.5 83.499h119c-7.33301 -79.333 -37.5 -139.5 -90.5 -180.5s-127.5 -61.5 -223.5 -61.5s-170.333 20.333 -223 61
s-82.667 101 -90 181zM1104 123.001c-54 -50 -114.833 -87.833 -182.5 -113.5s-140.834 -38.5 -219.501 -38.5c-189.333 0 -336.666 67.833 -441.999 203.5s-158 325.834 -158 570.501c0 244 53.333 434.167 160 570.5s255 204.5 445 204.5
c62.667 0 122.667 -8.83301 180 -26.5s112.666 -44.5 165.999 -80.5v-207c-54 51.333 -109.333 89.166 -166 113.499s-116.667 36.5 -180 36.5c-131.333 0 -229.833 -50.833 -295.5 -152.5s-98.5 -254.5 -98.5 -458.5c0 -207.333 31.833 -360.833 95.5 -460.5
s161.5 -149.5 293.5 -149.5c44.667 0 83.834 5.16699 117.501 15.5s64.167 26.5 91.5 48.5v401h-217v166h410v-643z" />
    <glyph glyph-name="gbreve" unicode="&#x11f;" 
d="M303 1608h119.001c7.33301 -50.667 27 -88.334 59 -113.001s77 -37 135 -37c56.667 0 101 12.333 133 37s52.667 62.334 62 113.001h119c-7.33301 -95.333 -37.333 -167 -90 -215s-127.334 -72 -224.001 -72c-96 0 -170.333 24 -223 72s-82.667 119.667 -90 215z
M858.001 569c0 138 -22.501 242.833 -67.501 314.5s-110.5 107.5 -196.5 107.5c-90 0 -158.667 -35.833 -206 -107.5s-71 -176.5 -71 -314.5s23.833 -243.167 71.5 -315.5s116.834 -108.5 207.501 -108.5c84.667 0 149.5 36.333 194.5 109s67.5 177.667 67.5 315zM1042 72
c0 -168 -39.665 -295.331 -118.998 -381.998s-196 -130 -350 -130c-50.667 0 -103.667 4.66699 -159 14s-110.666 23 -165.999 41v182c65.333 -30.667 124.666 -53.334 177.999 -68.001s102.333 -22 147 -22c99.333 0 171.666 27 216.999 81s68 139.667 68 257v8v125
c-29.333 -62.667 -69.333 -109.334 -120 -140.001s-112.334 -46 -185.001 -46c-130.667 0 -235 52.333 -313 157s-117 244.667 -117 420c0 176 39 316.333 117 421s182.333 157 313 157c72 0 133 -14.333 183 -43s90.667 -73 122 -133v145h184v-1044z" />
    <glyph glyph-name="Gdotaccent" unicode="&#x120;" 
d="M563 1872h205v-205h-205v205zM1104 123c-54 -50 -114.833 -87.833 -182.5 -113.5s-140.834 -38.5 -219.501 -38.5c-189.333 0 -336.666 67.833 -441.999 203.5s-158 325.834 -158 570.501c0 244 53.333 434.167 160 570.5s255 204.5 445 204.5
c62.667 0 122.667 -8.83301 180 -26.5s112.666 -44.5 165.999 -80.5v-207c-54 51.333 -109.333 89.166 -166 113.499s-116.667 36.5 -180 36.5c-131.333 0 -229.833 -50.833 -295.5 -152.5s-98.5 -254.5 -98.5 -458.5c0 -207.333 31.833 -360.833 95.5 -460.5
s161.5 -149.5 293.5 -149.5c44.667 0 83.834 5.16699 117.501 15.5s64.167 26.5 91.5 48.5v401h-217v166h410v-643z" />
    <glyph glyph-name="gdotaccent" unicode="&#x121;" 
d="M513 1552h205v-204h-205v204zM858 569c0 138 -22.501 242.833 -67.501 314.5s-110.5 107.5 -196.5 107.5c-90 0 -158.667 -35.833 -206 -107.5s-71 -176.5 -71 -314.5s23.833 -243.167 71.5 -315.5s116.834 -108.5 207.501 -108.5c84.667 0 149.5 36.333 194.5 109
s67.5 177.667 67.5 315zM1042 72c0 -168 -39.665 -295.331 -118.998 -381.998s-196 -130 -350 -130c-50.667 0 -103.667 4.66699 -159 14s-110.666 23 -165.999 41v182c65.333 -30.667 124.666 -53.334 177.999 -68.001s102.333 -22 147 -22c99.333 0 171.666 27 216.999 81
s68 139.667 68 257v8v125c-29.333 -62.667 -69.333 -109.334 -120 -140.001s-112.334 -46 -185.001 -46c-130.667 0 -235 52.333 -313 157s-117 244.667 -117 420c0 176 39 316.333 117 421s182.333 157 313 157c72 0 133 -14.333 183 -43s90.667 -73 122 -133v145h184
v-1044z" />
    <glyph glyph-name="Gcommaaccent" unicode="&#x122;" 
d="M630 -227h239l-187 -345h-146zM1104 123c-54 -50 -114.833 -87.833 -182.5 -113.5s-140.834 -38.5 -219.501 -38.5c-189.333 0 -336.666 67.833 -441.999 203.5s-158 325.834 -158 570.501c0 244 53.333 434.167 160 570.5s255 204.5 445 204.5
c62.667 0 122.667 -8.83301 180 -26.5s112.666 -44.5 165.999 -80.5v-207c-54 51.333 -109.333 89.166 -166 113.499s-116.667 36.5 -180 36.5c-131.333 0 -229.833 -50.833 -295.5 -152.5s-98.5 -254.5 -98.5 -458.5c0 -207.333 31.833 -360.833 95.5 -460.5
s161.5 -149.5 293.5 -149.5c44.667 0 83.834 5.16699 117.501 15.5s64.167 26.5 91.5 48.5v401h-217v166h410v-643z" />
    <glyph glyph-name="gcommaaccent" unicode="&#x123;" 
d="M725 1269h-239l187 345h146zM858 569c0 138 -22.501 242.833 -67.501 314.5s-110.5 107.5 -196.5 107.5c-90 0 -158.667 -35.833 -206 -107.5s-71 -176.5 -71 -314.5s23.833 -243.167 71.5 -315.5s116.834 -108.5 207.501 -108.5c84.667 0 149.5 36.333 194.5 109
s67.5 177.667 67.5 315zM1042 72c0 -168 -39.665 -295.331 -118.998 -381.998s-196 -130 -350 -130c-50.667 0 -103.667 4.66699 -159 14s-110.666 23 -165.999 41v182c65.333 -30.667 124.666 -53.334 177.999 -68.001s102.333 -22 147 -22c99.333 0 171.666 27 216.999 81
s68 139.667 68 257v8v125c-29.333 -62.667 -69.333 -109.334 -120 -140.001s-112.334 -46 -185.001 -46c-130.667 0 -235 52.333 -313 157s-117 244.667 -117 420c0 176 39 316.333 117 421s182.333 157 313 157c72 0 133 -14.333 183 -43s90.667 -73 122 -133v145h184
v-1044z" />
    <glyph glyph-name="Hcircumflex" unicode="&#x124;" 
d="M522 1901h189l211 -266h-140l-166 178l-165 -178h-140zM137 1493h203v-572h553v572h203v-1493h-203v751h-553v-751h-203v1493z" />
    <glyph glyph-name="hcircumflex" unicode="&#x125;" 
d="M522 1901h189l211 -266h-140l-166 178l-165 -178h-140zM1051 694l-0.000976562 -694h-185v694c0 100.667 -17.667 174.667 -53 222s-90.666 71 -165.999 71c-86 0 -152.167 -30.5 -198.5 -91.5s-69.5 -148.5 -69.5 -262.5v-633h-184v1556h184v-604
c32.667 64 77 112.5 133 145.5s122.333 49.5 199 49.5c114 0 199.167 -37.5 255.5 -112.5s84.5 -188.5 84.5 -340.5z" />
    <glyph glyph-name="Hbar" unicode="&#x126;" 
d="M137 1493h202v-224h554v224h202v-224h135v-164h-135v-1105h-202v711h-554v-711h-202v1105h-134v164h134v224zM339 1105v-224h554v224h-554z" />
    <glyph glyph-name="hbar" unicode="&#x127;" 
d="M1051 694l-0.000976562 -694h-185v694c0 100.667 -17.667 174.667 -53 222s-90.666 71 -165.999 71c-86 0 -152.167 -30.5 -198.5 -91.5s-69.5 -148.5 -69.5 -262.5v-633h-184v1270h-125v164h125v122h184v-122h353v-164h-353v-318c32.667 64 77 112.5 133 145.5
s122.333 49.5 199 49.5c114 0 199.167 -37.5 255.5 -112.5s84.5 -188.5 84.5 -340.5z" />
    <glyph glyph-name="Itilde" unicode="&#x128;" 
d="M612 1710l-57.002 33.002c-16.667 9.33301 -30.167 15.833 -40.5 19.5s-19.5 5.5 -27.5 5.5c-23.333 0 -41.666 -8.33301 -54.999 -25s-20 -40 -20 -70v-6h-125c0 67.333 17.167 120.666 51.5 159.999s79.833 59 136.5 59c24 0 46.167 -2.66699 66.5 -8
s46.833 -17 79.5 -35l57 -30c14.667 -8.66699 27.834 -15 39.501 -19s22.5 -6 32.5 -6c20.667 0 37.667 8.5 51 25.5s20 39.167 20 66.5v6h125c-1.33301 -66.667 -19 -119.834 -53 -159.501s-79 -59.5 -135 -59.5c-22.667 0 -44 2.66699 -64 8s-47.333 17 -82 35z
M200.998 1493h829v-170h-313v-1153h313v-170h-829v170h313v1153h-313v170z" />
    <glyph glyph-name="itilde" unicode="&#x129;" 
d="M612 1370l-57 55c-14 13.333 -26.5 23.166 -37.5 29.499s-21.167 9.5 -30.5 9.5c-25.333 0 -44 -12.333 -56 -37s-18.667 -64 -20 -118h-124c0.666992 89.333 18 158.666 52 207.999s81.333 74 142 74c26 0 49.667 -4.66699 71 -14s44.333 -25 69 -47l57 -55
c14 -13.333 26.5 -23.166 37.5 -29.499s20.833 -9.5 29.5 -9.5c26 0 45 12.333 57 37s18.333 64 19 118h125c-0.666992 -89.333 -18 -158.666 -52 -207.999s-81.333 -74 -142 -74c-26 0 -49.667 4.66699 -71 14s-44.333 25 -69 47zM256 1120h471v-977h365v-143h-914v143h365
v834h-287v143z" />
    <glyph glyph-name="Imacron" unicode="&#x12a;" 
d="M317 1840h598v-148h-598v148zM201 1493h829v-170h-313v-1153h313v-170h-829v170h313v1153h-313v170z" />
    <glyph glyph-name="imacron" unicode="&#x12b;" 
d="M317 1526h598v-148h-598v148zM256 1120h471v-977h365v-143h-914v143h365v834h-287v143z" />
    <glyph glyph-name="Ibreve" unicode="&#x12c;" 
d="M303 1901l119.001 0.000976562c8 -36 28.667 -63.5 62 -82.5s77.333 -28.5 132 -28.5c55.333 0 99.166 9.16699 131.499 27.5s53.5 46.166 63.5 83.499h119c-7.33301 -79.333 -37.5 -139.5 -90.5 -180.5s-127.5 -61.5 -223.5 -61.5s-170.333 20.333 -223 61
s-82.667 101 -90 181zM201.001 1493h829v-170h-313v-1153h313v-170h-829v170h313v1153h-313v170z" />
    <glyph glyph-name="ibreve" unicode="&#x12d;" 
d="M303 1608h119.001c7.33301 -50.667 27 -88.334 59 -113.001s77 -37 135 -37c56.667 0 101 12.333 133 37s52.667 62.334 62 113.001h119c-7.33301 -95.333 -37.333 -167 -90 -215s-127.334 -72 -224.001 -72c-96 0 -170.333 24 -223 72s-82.667 119.667 -90 215z
M256.001 1120h471v-977h365v-143h-914v143h365v834h-287v143z" />
    <glyph glyph-name="Iogonek" unicode="&#x12e;" 
d="M201 1493h829v-170h-313v-1153h313v-170h-829v170h313v1153h-313v170zM598 0h118.997c-30 -40.667 -52.167 -75.667 -66.5 -105s-21.5 -54.333 -21.5 -75c0 -30.667 9.16699 -53.667 27.5 -69s45.5 -23 81.5 -23c21.333 0 42.333 2.5 63 7.5s41.334 12.5 62.001 22.5
v-133c-25.333 -6.66699 -49.333 -11.667 -72 -15s-44 -5 -64 -5c-81.333 0 -141.166 14.5 -179.499 43.5s-57.5 74.5 -57.5 136.5c0 32 8.83301 65.5 26.5 100.5s44.834 73.167 81.501 114.5z" />
    <glyph glyph-name="iogonek" unicode="&#x12f;" 
d="M548 1424c0 36.667 12.833 67.834 38.5 93.501s56.834 38.5 93.501 38.5s67.834 -12.833 93.501 -38.5s38.5 -56.834 38.5 -93.501s-12.833 -67.834 -38.5 -93.501s-56.834 -38.5 -93.501 -38.5s-67.834 12.833 -93.501 38.5s-38.5 56.834 -38.5 93.501zM316 1116h471
v-973h365v-143h-914v143h365v830h-287v143zM608 0h118.997c-30 -40.667 -52.167 -75.667 -66.5 -105s-21.5 -54.333 -21.5 -75c0 -30.667 9.16699 -53.667 27.5 -69s45.5 -23 81.5 -23c21.333 0 42.333 2.5 63 7.5s41.334 12.5 62.001 22.5v-133
c-25.333 -6.66699 -49.333 -11.667 -72 -15s-44 -5 -64 -5c-81.333 0 -141.166 14.5 -179.499 43.5s-57.5 74.5 -57.5 136.5c0 32 8.83301 65.5 26.5 100.5s44.834 73.167 81.501 114.5z" />
    <glyph glyph-name="Idotaccent" unicode="&#x130;" 
d="M513 1872h205v-205h-205v205zM201 1493h829v-170h-313v-1153h313v-170h-829v170h313v1153h-313v170z" />
    <glyph glyph-name="dotlessi" unicode="&#x131;" 
d="M256 1120h471v-977h365v-143h-914v143h365v834h-287v143z" />
    <glyph glyph-name="IJ" unicode="&#x132;" 
d="M652 64v235.999c40.667 -54 83 -94.5 127 -121.5s89.667 -40.5 137 -40.5c64.667 0 110 24.667 136 74c25.333 50 38 142.667 38 278v836h-259v170h397v-1006c0 -188 -24 -321 -72 -399s-128 -117 -240 -117c-43.333 0 -86.666 7.33301 -129.999 22
c-42.667 14.667 -87.334 37.334 -134.001 68.001zM-1 1493h605v-170h-228v-1153h228v-170h-605v170h228v1153h-228v170z" />
    <glyph glyph-name="ij" unicode="&#x133;" 
d="M978 -31v997h-317v143h501v-1140c0 -130 -29.833 -230.167 -89.5 -300.5s-144.5 -105.5 -254.5 -105.5h-254v156h234c60 0 105 20.833 135 62.5s45 104.167 45 187.5zM978 1545h184v-233h-184v233zM59 1120h386v-977h300v-143h-750v143h299v834h-235v143zM294 1556h151
v-233h-151v233z" />
    <glyph glyph-name="Jcircumflex" unicode="&#x134;" 
d="M570 1901h189l211 -266h-140l-166 178l-165 -178h-140zM109 61l-0.000976562 235.999c60.667 -54 123.334 -94.5 188.001 -121.5s131.667 -40.5 201 -40.5c95.333 0 161.833 24.833 199.5 74.5s56.5 142.167 56.5 277.5v836h-381v170h583v-1006
c0 -188 -35.167 -321 -105.5 -399s-187.833 -117 -352.5 -117c-64 0 -127.667 7.33301 -191 22s-129.333 37.334 -198 68.001z" />
    <glyph glyph-name="jcircumflex" unicode="&#x135;" 
d="M543 1638h147l246 -376h-139l-181 245l-180 -245h-139zM600 -20v997h-317v143h501v-1140c0 -130 -29.833 -230.167 -89.5 -300.5s-144.5 -105.5 -254.5 -105.5h-254v156h234c60 0 105 20.833 135 62.5s45 104.167 45 187.5z" />
    <glyph glyph-name="Kcommaaccent" unicode="&#x136;" 
d="M608 -198h239l-187 -345h-146zM137 1493h203v-664l631 664h237l-581 -610l598 -883h-244l-487 748l-154 -164v-584h-203v1493z" />
    <glyph glyph-name="kcommaaccent" unicode="&#x137;" 
d="M646 -198h239l-187 -345h-146zM236 1556h190v-901l483 465h224l-441 -422l510 -698h-225l-414 578l-137 -129v-449h-190v1556z" />
    <glyph glyph-name="kgreenlandic" unicode="&#x138;" 
d="M236 1120h190v-465l483 465h224l-441 -422l510 -698h-225l-414 578l-137 -129v-449h-190v1120z" />
    <glyph glyph-name="Lacute" unicode="&#x139;" 
d="M398 1900h186l-229 -264h-154zM215 1493h203v-1323h721v-170h-924v1493z" />
    <glyph glyph-name="lacute" unicode="&#x13a;" 
d="M578 1900h186l-229 -264h-154zM380 1544h380v-1400h196l4 -144h-608l4 140h196l4 1260h-176v144z" />
    <glyph glyph-name="Lcommaaccent" unicode="&#x13b;" 
d="M604 -198h239l-187 -345h-146zM215 1493h203v-1323h721v-170h-924v1493z" />
    <glyph glyph-name="lcommaaccent" unicode="&#x13c;" 
d="M498 -198h239l-187 -345h-146zM380 1544h380v-1400h196l4 -144h-608l4 140h196l4 1260h-176v144z" />
    <glyph glyph-name="Lcaron" unicode="&#x13d;" 
d="M718 1492h198l-113 -376h-154zM215 1493h203v-1323h721v-170h-924v1493z" />
    <glyph glyph-name="lcaron" unicode="&#x13e;" 
d="M960 1568h198l-113 -376h-154zM380 1544h380v-1400h196l4 -144h-608l4 140h196l4 1260h-176v144z" />
    <glyph glyph-name="Ldot" unicode="&#x13f;" 
d="M841 998h252v-305h-252v305zM215 1493h203v-1323h721v-170h-924v1493z" />
    <glyph glyph-name="ldot" unicode="&#x140;" 
d="M960 1008h252v-305h-252v305zM380 1544h380v-1400h196l4 -144h-608l4 140h196l4 1260h-176v144z" />
    <glyph glyph-name="Lslash" unicode="&#x141;" 
d="M215 1493h203v-616l315 219l78 -111l-393 -274v-541h721v-170h-924v571l-145 -106l-80 110l225 158v760z" />
    <glyph glyph-name="lslash" unicode="&#x142;" 
d="M639 406c0 -82.667 15.168 -145 45.501 -187s75.166 -63 134.499 -63h215v-156h-233c-110 -0 -195.167 35.333 -255.5 106s-90.5 170.667 -90.5 300v292l-299 -209l-80 111l379 264v559h-295v144h479v-578l315 219l80 -110l-395 -275v-417z" />
    <glyph glyph-name="Nacute" unicode="&#x143;" 
d="M705 1899h186l-229 -264h-154zM19 1488h276l584 -1225v1225h215v-1488h-276l-584 1225v-1225h-215v1488z" />
    <glyph glyph-name="nacute" unicode="&#x144;" 
d="M776 1645h198l-325 -376h-154zM1051 694l-0.000976562 -694h-185v694c0 100.667 -17.667 174.667 -53 222s-90.666 71 -165.999 71c-86 0 -152.167 -30.5 -198.5 -91.5s-69.5 -148.5 -69.5 -262.5v-633h-184v1120h184v-168c32.667 64 77 112.5 133 145.5
s122.333 49.5 199 49.5c114 0 199.167 -37.5 255.5 -112.5s84.5 -188.5 84.5 -340.5z" />
    <glyph glyph-name="Ncommaaccent" unicode="&#x145;" 
d="M544 -198h239l-187 -345h-146zM19 1488h276l584 -1225v1225h215v-1488h-276l-584 1225v-1225h-215v1488z" />
    <glyph glyph-name="ncommaaccent" unicode="&#x146;" 
d="M550 -198h239l-187 -345h-146zM1051 694l-0.000976562 -694h-185v694c0 100.667 -17.667 174.667 -53 222s-90.666 71 -165.999 71c-86 0 -152.167 -30.5 -198.5 -91.5s-69.5 -148.5 -69.5 -262.5v-633h-184v1120h184v-168c32.667 64 77 112.5 133 145.5
s122.333 49.5 199 49.5c114 0 199.167 -37.5 255.5 -112.5s84.5 -188.5 84.5 -340.5z" />
    <glyph glyph-name="Ncaron" unicode="&#x147;" 
d="M19 1488h276l584 -1225v1225h215v-1488h-276l-584 1225v-1225h-215v1488zM564 1635l-211 266h140l165 -178l166 178h140l-211 -266h-189z" />
    <glyph glyph-name="ncaron" unicode="&#x148;" 
d="M1051 694l-0.000976562 -694h-185v694c0 100.667 -17.667 174.667 -53 222s-90.666 71 -165.999 71c-86 0 -152.167 -30.5 -198.5 -91.5s-69.5 -148.5 -69.5 -262.5v-633h-184v1120h184v-168c32.667 64 77 112.5 133 145.5s122.333 49.5 199 49.5
c114 0 199.167 -37.5 255.5 -112.5s84.5 -188.5 84.5 -340.5zM531.999 1262l-246 376h139l180 -245l181 245h139l-246 -376h-147z" />
    <glyph glyph-name="napostrophe" unicode="&#x149;" 
d="M1174 694l-0.000976562 -694h-185v694c0 100.667 -17.667 174.667 -53 222s-90.666 71 -165.999 71c-86 0 -152.167 -30.5 -198.5 -91.5s-69.5 -148.5 -69.5 -262.5v-633h-184v1120h184v-168c32.667 64 77 112.5 133 145.5s122.333 49.5 199 49.5
c114 0 199.167 -37.5 255.5 -112.5s84.5 -188.5 84.5 -340.5zM122.999 1556h252v-206l-197 -383h-153l98 383v206z" />
    <glyph glyph-name="Eng" unicode="&#x14a;" 
d="M1085 999v-1019c0 -130 -29.667 -230 -89 -300c-60 -70.667 -145 -106 -255 -106h-205v156h167c60 0 105 20.667 135 62c29.333 41.333 44 110.666 44 207.999v1009c0 120 -19.333 208.167 -58 264.5s-99.334 84.5 -182.001 84.5c-94 0 -166.333 -36.333 -217 -109
s-76 -176.667 -76 -312v-937h-202v1493h202v-198c36 74 84.667 130.333 146 169s134 58 218 58c124.667 0 217.834 -43.5 279.501 -130.5s92.5 -217.833 92.5 -392.5z" />
    <glyph glyph-name="eng" unicode="&#x14b;" 
d="M1051 694l-0.000976562 -714c0 -130 -29.667 -230 -89 -300c-60 -70.667 -145 -106 -255 -106h-205v156h185c60 0 105 20.667 135 62c29.333 41.333 44 104 44 188v714c0 100.667 -17.667 174.667 -53 222s-90.666 71 -165.999 71c-86 0 -152.333 -30.333 -199 -91
c-46 -61.333 -69 -149 -69 -263v-633h-184v1120h184v-168c32.667 64 77 112.667 133 146c56 32.667 122.333 49 199 49c114 0 199 -37.667 255 -113c56.667 -74.667 85 -188 85 -340z" />
    <glyph glyph-name="Omacron" unicode="&#x14c;" 
d="M317 1840h598v-148h-598v148zM905 745c0 219.333 -22.5 376 -67.5 470s-118.833 141 -221.5 141c-102 0 -175.5 -47 -220.5 -141s-67.5 -250.667 -67.5 -470c0 -218.667 22.5 -375 67.5 -469s118.5 -141 220.5 -141c102.667 0 176.5 46.833 221.5 140.5
s67.5 250.167 67.5 469.5zM1116 745c0 -260 -41.167 -453.999 -123.5 -581.999s-207.833 -192 -376.5 -192s-294 63.667 -376 191s-123 321.666 -123 582.999c0 260.667 41.167 455 123.5 583s207.5 192 375.5 192c168.667 0 294.167 -64 376.5 -192
s123.5 -322.333 123.5 -583z" />
    <glyph glyph-name="omacron" unicode="&#x14d;" 
d="M317 1526h598v-148h-598v148zM616 991c-93.333 0 -164 -36.333 -212 -109s-72 -180.334 -72 -323.001c0 -142 24 -249.5 72 -322.5s118.667 -109.5 212 -109.5c94 0 165 36.5 213 109.5s72 180.5 72 322.5c0 142.667 -24 250.334 -72 323.001s-119 109 -213 109z
M616 1147c155.333 0 274.167 -50.333 356.5 -151s123.5 -246.334 123.5 -437.001c0 -191.333 -41 -337.166 -123 -437.499s-201 -150.5 -357 -150.5c-155.333 0 -274 50.167 -356 150.5s-123 246.166 -123 437.499c0 190.667 41 336.334 123 437.001s200.667 151 356 151z
" />
    <glyph glyph-name="Obreve" unicode="&#x14e;" 
d="M303 1901l119.001 0.000976562c8 -36 28.667 -63.5 62 -82.5s77.333 -28.5 132 -28.5c55.333 0 99.166 9.16699 131.499 27.5s53.5 46.166 63.5 83.499h119c-7.33301 -79.333 -37.5 -139.5 -90.5 -180.5s-127.5 -61.5 -223.5 -61.5s-170.333 20.333 -223 61
s-82.667 101 -90 181zM905.001 745.001c0 219.333 -22.5 376 -67.5 470s-118.833 141 -221.5 141c-102 0 -175.5 -47 -220.5 -141s-67.5 -250.667 -67.5 -470c0 -218.667 22.5 -375 67.5 -469s118.5 -141 220.5 -141c102.667 0 176.5 46.833 221.5 140.5
s67.5 250.167 67.5 469.5zM1116 745.001c0 -260 -41.167 -453.999 -123.5 -581.999s-207.833 -192 -376.5 -192s-294 63.667 -376 191s-123 321.666 -123 582.999c0 260.667 41.167 455 123.5 583s207.5 192 375.5 192c168.667 0 294.167 -64 376.5 -192
s123.5 -322.333 123.5 -583z" />
    <glyph glyph-name="obreve" unicode="&#x14f;" 
d="M303 1608h119.001c7.33301 -50.667 27 -88.334 59 -113.001s77 -37 135 -37c56.667 0 101 12.333 133 37s52.667 62.334 62 113.001h119c-7.33301 -95.333 -37.333 -167 -90 -215s-127.334 -72 -224.001 -72c-96 0 -170.333 24 -223 72s-82.667 119.667 -90 215z
M616.001 991c-93.333 0 -164 -36.333 -212 -109s-72 -180.334 -72 -323.001c0 -142 24 -249.5 72 -322.5s118.667 -109.5 212 -109.5c94 0 165 36.5 213 109.5s72 180.5 72 322.5c0 142.667 -24 250.334 -72 323.001s-119 109 -213 109zM616.001 1147
c155.333 0 274.167 -50.333 356.5 -151s123.5 -246.334 123.5 -437.001c0 -191.333 -41 -337.166 -123 -437.499s-201 -150.5 -357 -150.5c-155.333 0 -274 50.167 -356 150.5s-123 246.166 -123 437.499c0 190.667 41 336.334 123 437.001s200.667 151 356 151z" />
    <glyph glyph-name="Ohungarumlaut" unicode="&#x150;" 
d="M860 1899h186l-229 -264h-154zM541 1899h186l-229 -264h-154zM905 745c0 219.333 -22.5 376 -67.5 470s-118.833 141 -221.5 141c-102 0 -175.5 -47 -220.5 -141s-67.5 -250.667 -67.5 -470c0 -218.667 22.5 -375 67.5 -469s118.5 -141 220.5 -141
c102.667 0 176.5 46.833 221.5 140.5s67.5 250.167 67.5 469.5zM1116 745c0 -260 -41.167 -453.999 -123.5 -581.999s-207.833 -192 -376.5 -192s-294 63.667 -376 191s-123 321.666 -123 582.999c0 260.667 41.167 455 123.5 583s207.5 192 375.5 192
c168.667 0 294.167 -64 376.5 -192s123.5 -322.333 123.5 -583z" />
    <glyph glyph-name="ohungarumlaut" unicode="&#x151;" 
d="M535 1638h170l-224 -376h-137zM868 1638h179l-248 -376h-135zM616 991c-93.333 0 -164 -36.333 -212 -109s-72 -180.334 -72 -323.001c0 -142 24 -249.5 72 -322.5s118.667 -109.5 212 -109.5c94 0 165 36.5 213 109.5s72 180.5 72 322.5
c0 142.667 -24 250.334 -72 323.001s-119 109 -213 109zM616 1147c155.333 0 274.167 -50.333 356.5 -151s123.5 -246.334 123.5 -437.001c0 -191.333 -41 -337.166 -123 -437.499s-201 -150.5 -357 -150.5c-155.333 0 -274 50.167 -356 150.5s-123 246.166 -123 437.499
c0 190.667 41 336.334 123 437.001s200.667 151 356 151z" />
    <glyph glyph-name="OE" unicode="&#x152;" 
d="M1217 170l0.00195312 -170h-605c-196.667 0 -335.834 55.5 -417.501 166.5s-122.5 303.833 -122.5 578.5c0 278 40.667 472.167 122 582.5s220.666 165.5 417.999 165.5h594v-170h-358v-442h328v-170h-328v-541h369zM590.002 1323c-118 0 -200.167 -38.333 -246.5 -115
s-69.5 -231 -69.5 -463c0 -230.667 23.167 -384.167 69.5 -460.5s128.5 -114.5 246.5 -114.5h61v1153h-61z" />
    <glyph glyph-name="oe" unicode="&#x153;" 
d="M1047 657c0 7.33301 0.333008 17.333 1 30s1 22 1 28c0 96.667 -13.333 167.5 -40 212.5s-68.667 67.5 -126 67.5c-58 0 -99.833 -22.833 -125.5 -68.5s-38.5 -121.167 -38.5 -226.5v-43h328zM373 123c68 0 115.667 28 143 84s41 163.667 41 323
c0 194 -13.333 320 -40 378s-74.667 87 -144 87c-68.667 0 -116.334 -27.833 -143.001 -83.5s-40 -173.167 -40 -352.5s13.333 -296.833 40 -352.5s74.334 -83.5 143.001 -83.5zM1210 514l-490.999 0.000976562v-84c0 -108.667 16.5 -187 49.5 -235s86.833 -72 161.5 -72
c53.333 0 101.833 8.83301 145.5 26.5s81.167 43.5 112.5 77.5v-172c-39.333 -28.667 -79.833 -49.834 -121.5 -63.501s-87.167 -20.5 -136.5 -20.5c-65.333 0 -122.5 11.167 -171.5 33.5s-89.5 55.5 -121.5 99.5c-34.667 -45.333 -73.334 -78.833 -116.001 -100.5
s-92 -32.5 -148 -32.5c-126 0 -217.333 46 -274 138s-85 242 -85 450s28.333 358 85 450s148 138 274 138c59.333 0 110.333 -10.333 153 -31s79.667 -52.667 111 -96c24.667 41.333 58.667 72.833 102 94.5s94 32.5 152 32.5c116.667 0 199 -39.5 247 -118.5
s72 -220.5 72 -424.5v-90z" />
    <glyph glyph-name="Racute" unicode="&#x154;" 
d="M598 1899h186l-229 -264h-154zM760 705c52 -13.333 96.332 -38.5 132.999 -75.5s82.334 -110.833 137.001 -221.5l203 -408h-217l-178 377c-51.333 107.333 -97.5 176.5 -138.5 207.5s-94.5 46.5 -160.5 46.5h-193v-631h-203v1493h416c164 0 289.667 -37 377 -111
s131 -181 131 -321c0 -98.667 -26.833 -179.167 -80.5 -241.5s-129.167 -100.5 -226.5 -114.5zM345.999 1327v-529.999h221c96.667 0 168.667 21.667 216 65s71 109.666 71 198.999c0 86 -25.167 151.833 -75.5 197.5s-123.5 68.5 -219.5 68.5h-213z" />
    <glyph glyph-name="racute" unicode="&#x155;" 
d="M962 1645h198l-325 -376h-154zM1155 889c-39.333 30.667 -79.3311 53.001 -119.998 67.001s-85.334 21 -134.001 21c-114.667 0 -202.334 -36 -263.001 -108s-91 -176 -91 -312v-557h-185v1120h185v-219c30.667 79.333 77.834 140.166 141.501 182.499
s139.167 63.5 226.5 63.5c45.333 0 87.666 -5.66699 126.999 -17s77 -29 113 -53v-188z" />
    <glyph glyph-name="Rcommaaccent" unicode="&#x156;" 
d="M616 -198h239l-187 -345h-146zM760 705c52 -13.333 96.332 -38.5 132.999 -75.5s82.334 -110.833 137.001 -221.5l203 -408h-217l-178 377c-51.333 107.333 -97.5 176.5 -138.5 207.5s-94.5 46.5 -160.5 46.5h-193v-631h-203v1493h416c164 0 289.667 -37 377 -111
s131 -181 131 -321c0 -98.667 -26.833 -179.167 -80.5 -241.5s-129.167 -100.5 -226.5 -114.5zM345.999 1327v-529.999h221c96.667 0 168.667 21.667 216 65s71 109.666 71 198.999c0 86 -25.167 151.833 -75.5 197.5s-123.5 68.5 -219.5 68.5h-213z" />
    <glyph glyph-name="rcommaaccent" unicode="&#x157;" 
d="M383 -198h239l-187 -345h-146zM1155 889c-39.333 30.667 -79.3311 53.001 -119.998 67.001s-85.334 21 -134.001 21c-114.667 0 -202.334 -36 -263.001 -108s-91 -176 -91 -312v-557h-185v1120h185v-219c30.667 79.333 77.834 140.166 141.501 182.499
s139.167 63.5 226.5 63.5c45.333 0 87.666 -5.66699 126.999 -17s77 -29 113 -53v-188z" />
    <glyph glyph-name="Rcaron" unicode="&#x158;" 
d="M760 705c52 -13.333 96.332 -38.5 132.999 -75.5s82.334 -110.833 137.001 -221.5l203 -408h-217l-178 377c-51.333 107.333 -97.5 176.5 -138.5 207.5s-94.5 46.5 -160.5 46.5h-193v-631h-203v1493h416c164 0 289.667 -37 377 -111s131 -181 131 -321
c0 -98.667 -26.833 -179.167 -80.5 -241.5s-129.167 -100.5 -226.5 -114.5zM345.999 1327v-529.999h221c96.667 0 168.667 21.667 216 65s71 109.666 71 198.999c0 86 -25.167 151.833 -75.5 197.5s-123.5 68.5 -219.5 68.5h-213zM462.999 1629l-211 266h140l165 -178
l166 178h140l-211 -266h-189z" />
    <glyph glyph-name="rcaron" unicode="&#x159;" 
d="M1155 889c-39.333 30.667 -79.3311 53.001 -119.998 67.001s-85.334 21 -134.001 21c-114.667 0 -202.334 -36 -263.001 -108s-91 -176 -91 -312v-557h-185v1120h185v-219c30.667 79.333 77.834 140.166 141.501 182.499s139.167 63.5 226.5 63.5
c45.333 0 87.666 -5.66699 126.999 -17s77 -29 113 -53v-188zM633.002 1262l-246 376h139l180 -245l181 245h139l-246 -376h-147z" />
    <glyph glyph-name="Sacute" unicode="&#x15a;" 
d="M697 1899h186l-229 -264h-154zM1012 1442l0.00292969 -204.997c-61.333 39.333 -122.833 69 -184.5 89s-123.834 30 -186.501 30c-95.333 0 -170.666 -22.167 -225.999 -66.5s-83 -104.166 -83 -179.499c0 -66 18.167 -116.333 54.5 -151s104.166 -63.667 203.499 -87
l106 -24c140 -32.667 242 -84 306 -154s96 -165.333 96 -286c0 -142 -44 -250.333 -132 -325s-216 -112 -384 -112c-70 0 -140.333 7.5 -211 22.5s-141.667 37.5 -213 67.5v215c76.667 -48.667 149.167 -84.334 217.5 -107.001s137.166 -34 206.499 -34
c102 0 181.333 22.833 238 68.5s85 109.5 85 191.5c0 74.667 -19.5 131.667 -58.5 171s-106.833 69.666 -203.5 90.999l-108 25c-138.667 31.333 -239.334 78.666 -302.001 141.999s-94 148.333 -94 255c0 133.333 44.833 240.166 134.5 320.499
s208.834 120.5 357.501 120.5c57.333 0 117.666 -6.5 180.999 -19.5s130 -32.5 200 -58.5z" />
    <glyph glyph-name="sacute" unicode="&#x15b;" 
d="M782 1645h198l-325 -376h-154zM973 1081l-0.000976562 -179.999c-52.667 30.667 -105.667 53.667 -159 69s-107.666 23 -162.999 23c-83.333 0 -145.5 -13.5 -186.5 -40.5s-61.5 -68.167 -61.5 -123.5c0 -50 15.333 -87.333 46 -112s107 -48.667 229 -72l74 -14
c91.333 -17.333 160.5 -52 207.5 -104s70.5 -119.667 70.5 -203c0 -110.667 -39.333 -197.167 -118 -259.5s-188 -93.5 -328 -93.5c-55.333 0 -113.333 5.83301 -174 17.5s-126.334 29.167 -197.001 52.5v190c68.667 -35.333 134.334 -61.833 197.001 -79.5
s122 -26.5 178 -26.5c81.333 0 144.333 16.5 189 49.5s67 79.167 67 138.5c0 85.333 -81.667 144.333 -245 177l-8 2l-69 14c-106 20.667 -183.333 55.5 -232 104.5s-73 115.833 -73 200.5c0 107.333 36.333 190.166 109 248.499s176.334 87.5 311.001 87.5
c60 0 117.667 -5.5 173 -16.5s109.666 -27.5 162.999 -49.5z" />
    <glyph glyph-name="Scircumflex" unicode="&#x15c;" 
d="M522 1901h189l211 -266h-140l-166 178l-165 -178h-140zM1012 1442l0.00292969 -204.997c-61.333 39.333 -122.833 69 -184.5 89s-123.834 30 -186.501 30c-95.333 0 -170.666 -22.167 -225.999 -66.5s-83 -104.166 -83 -179.499c0 -66 18.167 -116.333 54.5 -151
s104.166 -63.667 203.499 -87l106 -24c140 -32.667 242 -84 306 -154s96 -165.333 96 -286c0 -142 -44 -250.333 -132 -325s-216 -112 -384 -112c-70 0 -140.333 7.5 -211 22.5s-141.667 37.5 -213 67.5v215c76.667 -48.667 149.167 -84.334 217.5 -107.001
s137.166 -34 206.499 -34c102 0 181.333 22.833 238 68.5s85 109.5 85 191.5c0 74.667 -19.5 131.667 -58.5 171s-106.833 69.666 -203.5 90.999l-108 25c-138.667 31.333 -239.334 78.666 -302.001 141.999s-94 148.333 -94 255c0 133.333 44.833 240.166 134.5 320.499
s208.834 120.5 357.501 120.5c57.333 0 117.666 -6.5 180.999 -19.5s130 -32.5 200 -58.5z" />
    <glyph glyph-name="scircumflex" unicode="&#x15d;" 
d="M543 1638h147l246 -376h-139l-181 245l-180 -245h-139zM973 1081l-0.000976562 -179.999c-52.667 30.667 -105.667 53.667 -159 69s-107.666 23 -162.999 23c-83.333 0 -145.5 -13.5 -186.5 -40.5s-61.5 -68.167 -61.5 -123.5c0 -50 15.333 -87.333 46 -112
s107 -48.667 229 -72l74 -14c91.333 -17.333 160.5 -52 207.5 -104s70.5 -119.667 70.5 -203c0 -110.667 -39.333 -197.167 -118 -259.5s-188 -93.5 -328 -93.5c-55.333 0 -113.333 5.83301 -174 17.5s-126.334 29.167 -197.001 52.5v190
c68.667 -35.333 134.334 -61.833 197.001 -79.5s122 -26.5 178 -26.5c81.333 0 144.333 16.5 189 49.5s67 79.167 67 138.5c0 85.333 -81.667 144.333 -245 177l-8 2l-69 14c-106 20.667 -183.333 55.5 -232 104.5s-73 115.833 -73 200.5
c0 107.333 36.333 190.166 109 248.499s176.334 87.5 311.001 87.5c60 0 117.667 -5.5 173 -16.5s109.666 -27.5 162.999 -49.5z" />
    <glyph glyph-name="Scedilla" unicode="&#x15e;" 
d="M700 0c37.333 -41.333 64.833 -79.501 82.5 -114.501s26.5 -68.5 26.5 -100.5c0 -59.333 -20 -104.166 -60 -134.499s-99.333 -45.5 -178 -45.5c-30 0 -59.5 2 -88.5 6s-58.167 10 -87.5 18v131c22.667 -11.333 46.5 -19.5 71.5 -24.5s53.167 -7.5 84.5 -7.5
c38.667 0 68.167 8 88.5 24s30.5 39.333 30.5 70c0 20 -7.33301 44.5 -22 73.5s-36.667 63.833 -66 104.5h118zM1012 1442l0.00292969 -204.997c-61.333 39.333 -122.833 69 -184.5 89s-123.834 30 -186.501 30c-95.333 0 -170.666 -22.167 -225.999 -66.5
s-83 -104.166 -83 -179.499c0 -66 18.167 -116.333 54.5 -151s104.166 -63.667 203.499 -87l106 -24c140 -32.667 242 -84 306 -154s96 -165.333 96 -286c0 -142 -44 -250.333 -132 -325s-216 -112 -384 -112c-70 0 -140.333 7.5 -211 22.5s-141.667 37.5 -213 67.5v215
c76.667 -48.667 149.167 -84.334 217.5 -107.001s137.166 -34 206.499 -34c102 0 181.333 22.833 238 68.5s85 109.5 85 191.5c0 74.667 -19.5 131.667 -58.5 171s-106.833 69.666 -203.5 90.999l-108 25c-138.667 31.333 -239.334 78.666 -302.001 141.999
s-94 148.333 -94 255c0 133.333 44.833 240.166 134.5 320.499s208.834 120.5 357.501 120.5c57.333 0 117.666 -6.5 180.999 -19.5s130 -32.5 200 -58.5z" />
    <glyph glyph-name="scedilla" unicode="&#x15f;" 
d="M700 0c37.333 -41.333 64.833 -79.501 82.5 -114.501s26.5 -68.5 26.5 -100.5c0 -59.333 -20 -104.166 -60 -134.499s-99.333 -45.5 -178 -45.5c-30 0 -59.5 2 -88.5 6s-58.167 10 -87.5 18v131c22.667 -11.333 46.5 -19.5 71.5 -24.5s53.167 -7.5 84.5 -7.5
c38.667 0 68.167 8 88.5 24s30.5 39.333 30.5 70c0 20 -7.33301 44.5 -22 73.5s-36.667 63.833 -66 104.5h118zM973 1081l-0.000976562 -179.999c-52.667 30.667 -105.667 53.667 -159 69s-107.666 23 -162.999 23c-83.333 0 -145.5 -13.5 -186.5 -40.5
s-61.5 -68.167 -61.5 -123.5c0 -50 15.333 -87.333 46 -112s107 -48.667 229 -72l74 -14c91.333 -17.333 160.5 -52 207.5 -104s70.5 -119.667 70.5 -203c0 -110.667 -39.333 -197.167 -118 -259.5s-188 -93.5 -328 -93.5c-55.333 0 -113.333 5.83301 -174 17.5
s-126.334 29.167 -197.001 52.5v190c68.667 -35.333 134.334 -61.833 197.001 -79.5s122 -26.5 178 -26.5c81.333 0 144.333 16.5 189 49.5s67 79.167 67 138.5c0 85.333 -81.667 144.333 -245 177l-8 2l-69 14c-106 20.667 -183.333 55.5 -232 104.5s-73 115.833 -73 200.5
c0 107.333 36.333 190.166 109 248.499s176.334 87.5 311.001 87.5c60 0 117.667 -5.5 173 -16.5s109.666 -27.5 162.999 -49.5z" />
    <glyph glyph-name="Scaron" unicode="&#x160;" 
d="M1012 1442l0.00292969 -204.997c-61.333 39.333 -122.833 69 -184.5 89s-123.834 30 -186.501 30c-95.333 0 -170.666 -22.167 -225.999 -66.5s-83 -104.166 -83 -179.499c0 -66 18.167 -116.333 54.5 -151s104.166 -63.667 203.499 -87l106 -24
c140 -32.667 242 -84 306 -154s96 -165.333 96 -286c0 -142 -44 -250.333 -132 -325s-216 -112 -384 -112c-70 0 -140.333 7.5 -211 22.5s-141.667 37.5 -213 67.5v215c76.667 -48.667 149.167 -84.334 217.5 -107.001s137.166 -34 206.499 -34
c102 0 181.333 22.833 238 68.5s85 109.5 85 191.5c0 74.667 -19.5 131.667 -58.5 171s-106.833 69.666 -203.5 90.999l-108 25c-138.667 31.333 -239.334 78.666 -302.001 141.999s-94 148.333 -94 255c0 133.333 44.833 240.166 134.5 320.499
s208.834 120.5 357.501 120.5c57.333 0 117.666 -6.5 180.999 -19.5s130 -32.5 200 -58.5zM522.003 1635l-211 266h140l165 -178l166 178h140l-211 -266h-189z" />
    <glyph glyph-name="scaron" unicode="&#x161;" 
d="M973 1081l-0.000976562 -179.999c-52.667 30.667 -105.667 53.667 -159 69s-107.666 23 -162.999 23c-83.333 0 -145.5 -13.5 -186.5 -40.5s-61.5 -68.167 -61.5 -123.5c0 -50 15.333 -87.333 46 -112s107 -48.667 229 -72l74 -14c91.333 -17.333 160.5 -52 207.5 -104
s70.5 -119.667 70.5 -203c0 -110.667 -39.333 -197.167 -118 -259.5s-188 -93.5 -328 -93.5c-55.333 0 -113.333 5.83301 -174 17.5s-126.334 29.167 -197.001 52.5v190c68.667 -35.333 134.334 -61.833 197.001 -79.5s122 -26.5 178 -26.5c81.333 0 144.333 16.5 189 49.5
s67 79.167 67 138.5c0 85.333 -81.667 144.333 -245 177l-8 2l-69 14c-106 20.667 -183.333 55.5 -232 104.5s-73 115.833 -73 200.5c0 107.333 36.333 190.166 109 248.499s176.334 87.5 311.001 87.5c60 0 117.667 -5.5 173 -16.5s109.666 -27.5 162.999 -49.5z
M542.999 1262l-246 376h139l180 -245l181 245h139l-246 -376h-147z" />
    <glyph glyph-name="Tcommaaccent" unicode="&#x162;" 
d="M700 0c37.333 -41.333 64.833 -79.501 82.5 -114.501s26.5 -68.5 26.5 -100.5c0 -59.333 -20 -104.166 -60 -134.499s-99.333 -45.5 -178 -45.5c-30 0 -59.5 2 -88.5 6s-58.167 10 -87.5 18v131c22.667 -11.333 46.5 -19.5 71.5 -24.5s53.167 -7.5 84.5 -7.5
c38.667 0 68.167 8 88.5 24s30.5 39.333 30.5 70c0 20 -7.33301 44.5 -22 73.5s-36.667 63.833 -66 104.5h118zM47 1493h1139v-170h-467v-1323h-203v1323h-469v170z" />
    <glyph glyph-name="tcommaaccent" unicode="&#x163;" 
d="M821 0c37.333 -41.333 64.833 -79.501 82.5 -114.501s26.5 -68.5 26.5 -100.5c0 -59.333 -20 -104.166 -60 -134.499s-99.333 -45.5 -178 -45.5c-30 0 -59.5 2 -88.5 6s-58.167 10 -87.5 18v131c22.667 -11.333 46.5 -19.5 71.5 -24.5s53.167 -7.5 84.5 -7.5
c38.667 0 68.167 8 88.5 24s30.5 39.333 30.5 70c0 20 -7.33301 44.5 -22 73.5s-36.667 63.833 -66 104.5h118zM614 1438v-317.998h418v-143h-418v-608c0 -82.667 15.667 -140.334 47 -173.001s86 -49 164 -49h207v-147h-225c-138 0 -235.333 27.667 -292 83
s-85 150.666 -85 285.999v608h-299v143h299v318h184z" />
    <glyph glyph-name="Tcaron" unicode="&#x164;" 
d="M47 1493h1139v-170h-467v-1323h-203v1323h-469v170zM528 1635l-211 266h140l165 -178l166 178h140l-211 -266h-189z" />
    <glyph glyph-name="tcaron" unicode="&#x165;" 
d="M614 1438v-317.998h418v-143h-418v-608c0 -82.667 15.667 -140.334 47 -173.001s86 -49 164 -49h207v-147h-225c-138 0 -235.333 27.667 -292 83s-85 150.666 -85 285.999v608h-299v143h299v318h184zM820 1662h198l-113 -376h-154z" />
    <glyph glyph-name="Tbar" unicode="&#x166;" 
d="M47 1493h1139v-170h-467v-576h265v-170h-265v-577h-203v577h-265v170h265v576h-469v170z" />
    <glyph glyph-name="tbar" unicode="&#x167;" 
d="M614 1438v-317.998h418v-143h-418v-233h229v-142h-229v-233c0 -82.667 15.667 -140.334 47 -173.001s86 -49 164 -49h207v-147h-225c-138 0 -235.333 27.667 -292 83s-85 150.666 -85 285.999v233h-229v142h229v233h-299v143h299v318h184z" />
    <glyph glyph-name="Utilde" unicode="&#x168;" 
d="M612 1710l-57.002 33.002c-16.667 9.33301 -30.167 15.833 -40.5 19.5s-19.5 5.5 -27.5 5.5c-23.333 0 -41.666 -8.33301 -54.999 -25s-20 -40 -20 -70v-6h-125c0 67.333 17.167 120.666 51.5 159.999s79.833 59 136.5 59c24 0 46.167 -2.66699 66.5 -8
s46.833 -17 79.5 -35l57 -30c14.667 -8.66699 27.834 -15 39.501 -19s22.5 -6 32.5 -6c20.667 0 37.667 8.5 51 25.5s20 39.167 20 66.5v6h125c-1.33301 -66.667 -19 -119.834 -53 -159.501s-79 -59.5 -135 -59.5c-22.667 0 -44 2.66699 -64 8s-47.333 17 -82 35z
M146.998 573.002l0.00390625 919.998h203v-1012c0 -72.667 2 -124.5 6 -155.5s11 -54.833 21 -71.5c21.333 -39.333 52.166 -69 92.499 -89s89.166 -30 146.499 -30c58 0 107 10 147 30s71 49.667 93 89c10 16.667 17 40.334 21 71.001s6 82 6 154v1014h202v-920
c0 -152.667 -9.5 -261.167 -28.5 -325.5s-51.833 -117.5 -98.5 -159.5c-44 -39.333 -94.333 -68.666 -151 -87.999s-120.334 -29 -191.001 -29c-70 0 -133.333 9.66699 -190 29s-107.334 48.666 -152.001 87.999c-46 41.333 -78.667 94.833 -98 160.5
s-29 173.834 -29 324.501z" />
    <glyph glyph-name="utilde" unicode="&#x169;" 
d="M612 1370l-57 55c-14 13.333 -26.5 23.166 -37.5 29.499s-21.167 9.5 -30.5 9.5c-25.333 0 -44 -12.333 -56 -37s-18.667 -64 -20 -118h-124c0.666992 89.333 18 158.666 52 207.999s81.333 74 142 74c26 0 49.667 -4.66699 71 -14s44.333 -25 69 -47l57 -55
c14 -13.333 26.5 -23.166 37.5 -29.499s20.833 -9.5 29.5 -9.5c26 0 45 12.333 57 37s18.333 64 19 118h125c-0.666992 -89.333 -18 -158.666 -52 -207.999s-81.333 -74 -142 -74c-26 0 -49.667 4.66699 -71 14s-44.333 25 -69 47zM195 424l-0.00195312 694h184v-694
c0 -100.667 17.833 -174.667 53.5 -222s90.834 -71 165.501 -71c86.667 0 153 30.5 199 91.5s69 148.5 69 262.5v633h185v-1118h-185v168c-32.667 -64.667 -77.167 -113.667 -133.5 -147s-122.166 -50 -197.499 -50c-114.667 0 -200 37.5 -256 112.5s-84 188.5 -84 340.5z
" />
    <glyph glyph-name="Umacron" unicode="&#x16a;" 
d="M317 1840h598v-148h-598v148zM147 573l0.00390625 919.998h203v-1012c0 -72.667 2 -124.5 6 -155.5s11 -54.833 21 -71.5c21.333 -39.333 52.166 -69 92.499 -89s89.166 -30 146.499 -30c58 0 107 10 147 30s71 49.667 93 89c10 16.667 17 40.334 21 71.001s6 82 6 154
v1014h202v-920c0 -152.667 -9.5 -261.167 -28.5 -325.5s-51.833 -117.5 -98.5 -159.5c-44 -39.333 -94.333 -68.666 -151 -87.999s-120.334 -29 -191.001 -29c-70 0 -133.333 9.66699 -190 29s-107.334 48.666 -152.001 87.999c-46 41.333 -78.667 94.833 -98 160.5
s-29 173.834 -29 324.501z" />
    <glyph glyph-name="umacron" unicode="&#x16b;" 
d="M317 1526h598v-148h-598v148zM195 424l-0.00195312 694h184v-694c0 -100.667 17.833 -174.667 53.5 -222s90.834 -71 165.501 -71c86.667 0 153 30.5 199 91.5s69 148.5 69 262.5v633h185v-1118h-185v168c-32.667 -64.667 -77.167 -113.667 -133.5 -147
s-122.166 -50 -197.499 -50c-114.667 0 -200 37.5 -256 112.5s-84 188.5 -84 340.5z" />
    <glyph glyph-name="Ubreve" unicode="&#x16c;" 
d="M303 1901l119.001 0.000976562c8 -36 28.667 -63.5 62 -82.5s77.333 -28.5 132 -28.5c55.333 0 99.166 9.16699 131.499 27.5s53.5 46.166 63.5 83.499h119c-7.33301 -79.333 -37.5 -139.5 -90.5 -180.5s-127.5 -61.5 -223.5 -61.5s-170.333 20.333 -223 61
s-82.667 101 -90 181zM147.001 573.001l0.00390625 919.998h203v-1012c0 -72.667 2 -124.5 6 -155.5s11 -54.833 21 -71.5c21.333 -39.333 52.166 -69 92.499 -89s89.166 -30 146.499 -30c58 0 107 10 147 30s71 49.667 93 89c10 16.667 17 40.334 21 71.001s6 82 6 154
v1014h202v-920c0 -152.667 -9.5 -261.167 -28.5 -325.5s-51.833 -117.5 -98.5 -159.5c-44 -39.333 -94.333 -68.666 -151 -87.999s-120.334 -29 -191.001 -29c-70 0 -133.333 9.66699 -190 29s-107.334 48.666 -152.001 87.999c-46 41.333 -78.667 94.833 -98 160.5
s-29 173.834 -29 324.501z" />
    <glyph glyph-name="ubreve" unicode="&#x16d;" 
d="M303 1608h119.001c7.33301 -50.667 27 -88.334 59 -113.001s77 -37 135 -37c56.667 0 101 12.333 133 37s52.667 62.334 62 113.001h119c-7.33301 -95.333 -37.333 -167 -90 -215s-127.334 -72 -224.001 -72c-96 0 -170.333 24 -223 72s-82.667 119.667 -90 215z
M195.001 424l-0.00195312 694h184v-694c0 -100.667 17.833 -174.667 53.5 -222s90.834 -71 165.501 -71c86.667 0 153 30.5 199 91.5s69 148.5 69 262.5v633h185v-1118h-185v168c-32.667 -64.667 -77.167 -113.667 -133.5 -147s-122.166 -50 -197.499 -50
c-114.667 0 -200 37.5 -256 112.5s-84 188.5 -84 340.5z" />
    <glyph glyph-name="Uring" unicode="&#x16e;" 
d="M147 573l0.00390625 919.998h203v-1012c0 -72.667 2 -124.5 6 -155.5s11 -54.833 21 -71.5c21.333 -39.333 52.166 -69 92.499 -89s89.166 -30 146.499 -30c58 0 107 10 147 30s71 49.667 93 89c10 16.667 17 40.334 21 71.001s6 82 6 154v1014h202v-920
c0 -152.667 -9.5 -261.167 -28.5 -325.5s-51.833 -117.5 -98.5 -159.5c-44 -39.333 -94.333 -68.666 -151 -87.999s-120.334 -29 -191.001 -29c-70 0 -133.333 9.66699 -190 29s-107.334 48.666 -152.001 87.999c-46 41.333 -78.667 94.833 -98 160.5
s-29 173.834 -29 324.501zM901.004 1859c0 -76.667 -26.5 -141.667 -79.5 -195s-118.167 -80 -195.5 -80c-76.667 0 -141.5 26.667 -194.5 80s-79.5 118.333 -79.5 195s26.5 141.5 79.5 194.5s117.833 79.5 194.5 79.5c77.333 0 142.5 -26.5 195.5 -79.5
s79.5 -117.833 79.5 -194.5zM778.004 1859c0 42 -14.667 77.667 -44 107s-65.333 44 -108 44s-78.5 -14.5 -107.5 -43.5s-43.5 -64.833 -43.5 -107.5c0 -43.333 14.5 -79.5 43.5 -108.5s64.833 -43.5 107.5 -43.5s78.667 14.667 108 44s44 65.333 44 108z" />
    <glyph glyph-name="uring" unicode="&#x16f;" 
d="M195 424l-0.00195312 694h184v-694c0 -100.667 17.833 -174.667 53.5 -222s90.834 -71 165.501 -71c86.667 0 153 30.5 199 91.5s69 148.5 69 262.5v633h185v-1118h-185v168c-32.667 -64.667 -77.167 -113.667 -133.5 -147s-122.166 -50 -197.499 -50
c-114.667 0 -200 37.5 -256 112.5s-84 188.5 -84 340.5zM905.998 1480c0 -76.667 -26.5 -141.667 -79.5 -195s-118.167 -80 -195.5 -80c-76.667 0 -141.5 26.667 -194.5 80s-79.5 118.333 -79.5 195s26.5 141.5 79.5 194.5s117.833 79.5 194.5 79.5
c77.333 0 142.5 -26.5 195.5 -79.5s79.5 -117.833 79.5 -194.5zM782.998 1480c0 42 -14.667 77.667 -44 107s-65.333 44 -108 44s-78.5 -14.5 -107.5 -43.5s-43.5 -64.833 -43.5 -107.5c0 -43.333 14.5 -79.5 43.5 -108.5s64.833 -43.5 107.5 -43.5s78.667 14.667 108 44
s44 65.333 44 108z" />
    <glyph glyph-name="Uhungarumlaut" unicode="&#x170;" 
d="M860 1899h186l-229 -264h-154zM541 1899h186l-229 -264h-154zM147 573l0.00390625 919.998h203v-1012c0 -72.667 2 -124.5 6 -155.5s11 -54.833 21 -71.5c21.333 -39.333 52.166 -69 92.499 -89s89.166 -30 146.499 -30c58 0 107 10 147 30s71 49.667 93 89
c10 16.667 17 40.334 21 71.001s6 82 6 154v1014h202v-920c0 -152.667 -9.5 -261.167 -28.5 -325.5s-51.833 -117.5 -98.5 -159.5c-44 -39.333 -94.333 -68.666 -151 -87.999s-120.334 -29 -191.001 -29c-70 0 -133.333 9.66699 -190 29s-107.334 48.666 -152.001 87.999
c-46 41.333 -78.667 94.833 -98 160.5s-29 173.834 -29 324.501z" />
    <glyph glyph-name="uhungarumlaut" unicode="&#x171;" 
d="M535 1638h170l-224 -376h-137zM868 1638h179l-248 -376h-135zM195 424l-0.00195312 694h184v-694c0 -100.667 17.833 -174.667 53.5 -222s90.834 -71 165.501 -71c86.667 0 153 30.5 199 91.5s69 148.5 69 262.5v633h185v-1118h-185v168
c-32.667 -64.667 -77.167 -113.667 -133.5 -147s-122.166 -50 -197.499 -50c-114.667 0 -200 37.5 -256 112.5s-84 188.5 -84 340.5z" />
    <glyph glyph-name="Uogonek" unicode="&#x172;" 
d="M147 573l0.00390625 919.998h203v-1012c0 -72.667 2 -124.5 6 -155.5s11 -54.833 21 -71.5c21.333 -39.333 52.166 -69 92.499 -89s89.166 -30 146.499 -30c58 0 107 10 147 30s71 49.667 93 89c10 16.667 17 40.334 21 71.001s6 82 6 154v1014h202v-920
c0 -152.667 -9.5 -261.167 -28.5 -325.5s-51.833 -117.5 -98.5 -159.5c-44 -39.333 -94.333 -68.666 -151 -87.999s-120.334 -29 -191.001 -29c-70 0 -133.333 9.66699 -190 29s-107.334 48.666 -152.001 87.999c-46 41.333 -78.667 94.833 -98 160.5
s-29 173.834 -29 324.501zM556.004 -15.002h118.997c-30 -40.667 -52.167 -75.667 -66.5 -105s-21.5 -54.333 -21.5 -75c0 -30.667 9.16699 -53.667 27.5 -69s45.5 -23 81.5 -23c21.333 0 42.333 2.5 63 7.5s41.334 12.5 62.001 22.5v-133
c-25.333 -6.66699 -49.333 -11.667 -72 -15s-44 -5 -64 -5c-81.333 0 -141.166 14.5 -179.499 43.5s-57.5 74.5 -57.5 136.5c0 32 8.83301 65.5 26.5 100.5s44.834 73.167 81.501 114.5z" />
    <glyph glyph-name="uogonek" unicode="&#x173;" 
d="M195 424l-0.00195312 694h184v-694c0 -100.667 17.833 -174.667 53.5 -222s90.834 -71 165.501 -71c86.667 0 153 30.5 199 91.5s69 148.5 69 262.5v633h185v-1118h-185v168c-32.667 -64.667 -77.167 -113.667 -133.5 -147s-122.166 -50 -197.499 -50
c-114.667 0 -200 37.5 -256 112.5s-84 188.5 -84 340.5zM934.998 0h118.997c-30 -40.667 -52.167 -75.667 -66.5 -105s-21.5 -54.333 -21.5 -75c0 -30.667 9.16699 -53.667 27.5 -69s45.5 -23 81.5 -23c21.333 0 42.333 2.5 63 7.5s41.334 12.5 62.001 22.5v-133
c-25.333 -6.66699 -49.333 -11.667 -72 -15s-44 -5 -64 -5c-81.333 0 -141.166 14.5 -179.499 43.5s-57.5 74.5 -57.5 136.5c0 32 8.83301 65.5 26.5 100.5s44.834 73.167 81.501 114.5z" />
    <glyph glyph-name="Wcircumflex" unicode="&#x174;" 
d="M522 1908h189l211 -266h-140l-166 178l-165 -178h-140zM0 1493h197l143 -1212l170 802h211l172 -804l143 1214h197l-223 -1493h-191l-203 887l-202 -887h-191z" />
    <glyph glyph-name="wcircumflex" unicode="&#x175;" 
d="M543 1645h147l246 -376h-139l-181 245l-180 -245h-139zM0 1120h182l195 -905l160 578h157l162 -578l195 905h182l-262 -1120h-176l-179 614l-178 -614h-176z" />
    <glyph glyph-name="Ycircumflex" unicode="&#x176;" 
d="M522 1908h189l211 -266h-140l-166 178l-165 -178h-140zM37 1493h215l364 -659l363 659h217l-479 -823v-670h-203v670z" />
    <glyph glyph-name="ycircumflex" unicode="&#x177;" 
d="M555 1645h147l246 -376h-139l-181 245l-180 -245h-139zM858 360l-117 -308c-66 -176 -110.333 -283.333 -133 -322c-30.667 -52 -69 -91 -115 -117s-99.667 -39 -161 -39h-148v154h109c54 0 96.333 15.667 127 47s69.667 112.333 117 243l-433 1102h195l332 -876l327 876
h195z" />
    <glyph glyph-name="Ydieresis" unicode="&#x178;" 
d="M37 1493h215l364 -659l363 659h217l-479 -823v-670h-203v670zM319 1870h203v-203h-203v203zM711 1870h202v-203h-202v203z" />
    <glyph glyph-name="Zacute" unicode="&#x179;" 
d="M699 1899h186l-229 -264h-154zM178 1493h969v-154l-780 -1169h802v-170h-1013v154l759 1169h-737v170z" />
    <glyph glyph-name="zacute" unicode="&#x17a;" 
d="M842 1645h198l-325 -376h-154zM227 1122h813v-168l-643 -804h643v-150h-837v170l643 805h-619v147z" />
    <glyph glyph-name="Zdotaccent" unicode="&#x17b;" 
d="M563 1872h205v-205h-205v205zM178 1493h969v-154l-780 -1169h802v-170h-1013v154l759 1169h-737v170z" />
    <glyph glyph-name="zdotaccent" unicode="&#x17c;" 
d="M513 1552h205v-204h-205v204zM227 1122h813v-168l-643 -804h643v-150h-837v170l643 805h-619v147z" />
    <glyph glyph-name="Zcaron" unicode="&#x17d;" 
d="M178 1493h969v-154l-780 -1169h802v-170h-1013v154l759 1169h-737v170zM522 1635l-211 266h140l165 -178l166 178h140l-211 -266h-189z" />
    <glyph glyph-name="zcaron" unicode="&#x17e;" 
d="M227 1122h813v-168l-643 -804h643v-150h-837v170l643 805h-619v147zM543 1262l-246 376h139l180 -245l181 245h139l-246 -376h-147z" />
    <glyph glyph-name="longs" unicode="&#x17f;" 
d="M678 1219l0.000976562 -1219h-184v977h-299v143h299v78c0 122.667 28.167 213 84.5 271s144.166 87 263.499 87h221v-153h-209c-66 0 -111.833 -13.5 -137.5 -40.5s-38.5 -74.833 -38.5 -143.5z" />
    <glyph glyph-name="uni0180" unicode="&#x180;" 
d="M377 977c29.333 54.667 69.833 96.667 121.5 126s111.5 44 179.5 44c134.667 0 240.667 -51.833 318 -155.5s116 -246.5 116 -428.5c0 -184.667 -38.833 -329.5 -116.5 -434.5s-184.167 -157.5 -319.5 -157.5c-66.667 0 -125.5 14.5 -176.5 43.5
s-91.833 71.167 -122.5 126.5v-141h-184v1270h-123v164h123v122h184v-122h2h353v-164h-353h-2v-293zM918 559c0 142.667 -22.667 250.331 -68 322.998s-112.333 109 -201 109c-89.333 0 -157 -36.5 -203 -109.5s-69 -180.5 -69 -322.5c0 -141.333 23 -248.666 69 -321.999
s113.667 -110 203 -110c88.667 0 155.667 36.333 201 109s68 180.334 68 323.001z" />
    <glyph glyph-name="uni0181" unicode="&#x181;" 
d="M540 713v-547h120c117.333 0 201 20.5 251 61.5s75 108.5 75 202.5c0 97.333 -26.333 168.833 -79 214.5s-135 68.5 -247 68.5h-120zM540 1327v-449.998h116c97.333 0 167.833 18.667 211.5 56s65.5 97.666 65.5 180.999c0 75.333 -21.5 129.666 -64.5 162.999
s-113.833 50 -212.5 50h-116zM338 1493h321.999c152.667 0 270.334 -33 353.001 -99s124 -159.333 124 -280c0 -91.333 -21.833 -163.333 -65.5 -216s-109.167 -85.667 -196.5 -99c98 -14.667 174.833 -56.5 230.5 -125.5s83.5 -156.833 83.5 -263.5
c0 -135.333 -44.333 -237.5 -133 -306.5s-220.667 -103.5 -396 -103.5h-322v1327c-41.333 0 -78.666 -14.5 -111.999 -43.5s-50 -80.833 -50 -155.5v-49h-156v70c0 106 28.167 189.833 84.5 251.5s134.166 92.5 233.499 92.5z" />
    <glyph glyph-name="uni0182" unicode="&#x182;" 
d="M369 713v-547h239c117.333 0 201 20.5 251 61.5s75 108.5 75 202.5c0 97.333 -26.333 168.833 -79 214.5s-135 68.5 -247 68.5h-239zM1068 1327h-699v-450h235c252.667 -10 412.667 -78.667 480 -206c35.333 -66.667 53 -153.667 53 -261
c0 -135.333 -44.333 -237.333 -133 -306c-88.667 -69.333 -220.667 -104 -396 -104h-442v1493h902v-166z" />
    <glyph glyph-name="uni0183" unicode="&#x183;" 
d="M377 977c29.333 54.667 69.833 96.667 121.5 126s111.5 44 179.5 44c134.667 0 240.667 -51.833 318 -155.5s116 -246.5 116 -428.5c0 -184.667 -38.833 -329.5 -116.5 -434.5s-184.167 -157.5 -319.5 -157.5c-66.667 0 -125.5 14.5 -176.5 43.5
s-91.833 71.167 -122.5 126.5v-141h-184v1556h752v-184h-568v-395zM918 559c0 142.667 -22.667 250.331 -68 322.998s-112.333 109 -201 109c-89.333 0 -157 -36.5 -203 -109.5s-69 -180.5 -69 -322.5c0 -141.333 23 -248.666 69 -321.999s113.667 -110 203 -110
c88.667 0 155.667 36.333 201 109s68 180.334 68 323.001z" />
    <glyph glyph-name="uni0184" unicode="&#x184;" 
d="M417 713v-546.999h239c117.333 0 201 20.667 251 62c50 40.667 75 108 75 202c0 97.333 -26.333 168.666 -79 213.999c-52.667 46 -135 69 -247 69h-239zM417 877.001h235c252.667 -10 412.667 -78.667 480 -206c35.333 -66.667 53 -153.667 53 -261
c0 -135.333 -44.333 -237.333 -133 -306c-88.667 -69.333 -220.667 -104 -396 -104h-442v948l-166 228l369 317v-616z" />
    <glyph glyph-name="uni0185" unicode="&#x185;" 
d="M978 559c0 142.667 -22.667 250.331 -68 322.998s-112 109 -200 109c-89.333 0 -157.333 -36.333 -204 -109c-45.333 -73.333 -68 -181 -68 -323c0 -141.333 22.667 -248.666 68 -321.999c46.667 -73.333 114.667 -110 204 -110c88 0 154.667 36.333 200 109
s68 180.334 68 323.001zM438 976.997c29.333 54.667 69.6689 96.668 121.002 126.001s111 44 179 44c134.667 0 240.667 -51.667 318 -155c77.333 -104 116 -247 116 -429c0 -184.667 -38.667 -329.667 -116 -435c-77.333 -104.667 -184 -157 -320 -157
c-66.667 0 -125.334 14.333 -176.001 43c-50.667 29.333 -91.334 71.666 -122.001 126.999v-141h-184v948l-194 228l378 380v-579z" />
    <glyph glyph-name="uni0186" unicode="&#x186;" 
d="M139 1438c51.333 27.333 104 47.832 158 61.499s111.333 20.5 172 20.5c190 0 338.167 -68.167 444.5 -204.5s159.5 -326.5 159.5 -570.5c0 -245.333 -52.833 -435.666 -158.5 -570.999s-254.167 -203 -445.5 -203c-60.667 0 -118 6.83301 -172 20.5
s-106.667 34.167 -158 61.5v207c48.667 -40.667 101.167 -71.667 157.5 -93s113.833 -32 172.5 -32c131.333 0 229.666 50.667 294.999 152s98 254 98 458c0 204.667 -32.667 357.667 -98 459s-163.666 152 -294.999 152c-57.333 0 -114.333 -10.667 -171 -32
s-109.667 -52.333 -159 -93v207z" />
    <glyph glyph-name="uni0187" unicode="&#x187;" 
d="M994 53c-51.333 -27.333 -104 -47.833 -158 -61.5s-111.333 -20.5 -172 -20.5c-191.333 0 -339.833 67.667 -445.5 203s-158.5 325.666 -158.5 570.999c0 198.667 53.167 366.167 159.5 502.5s254.5 204.5 444.5 204.5c60 0 116.333 -6.66699 169 -20
c15.333 34 37 67.667 65 101c60 70.667 145 106 255 106h20v-156c-56 0 -101 -20.667 -135 -62c-29.333 -35.333 -44 -98 -44 -188v-70c-49.333 40.667 -102.333 71.667 -159 93s-113.667 32 -171 32c-131.333 0 -229.666 -50.667 -294.999 -152s-98 -231.666 -98 -390.999
c0 -204 32.667 -356.667 98 -458s163.666 -152 294.999 -152c58.667 0 116.167 10.667 172.5 32s108.833 52.333 157.5 93v-207z" />
    <glyph glyph-name="uni0188" unicode="&#x188;" 
d="M960 57c-49.333 -28.667 -100.169 -50.165 -152.502 -64.498s-105.833 -21.5 -160.5 -21.5c-173.333 0 -308.833 52 -406.5 156s-146.5 248 -146.5 432s48.833 328 146.5 432s233.167 156 406.5 156c46.667 0 92.334 -5.33301 137.001 -16
c12.667 76 39.334 137.667 80.001 185c60 70.667 145 106 255 106h20v-156c-60 0 -105 -20.667 -135 -62c-29.333 -41.333 -44 -104 -44 -188v-148c-48.667 43.333 -97.5 74.666 -146.5 93.999s-104.5 29 -166.5 29c-115.333 0 -204 -37.333 -266 -112
s-93 -181.334 -93 -320.001c0 -138 31.167 -244.5 93.5 -319.5s150.833 -112.5 265.5 -112.5c64 0 121.333 9.83301 172 29.5s97.667 50.167 141 91.5v-191z" />
    <glyph glyph-name="uni0189" unicode="&#x189;" 
d="M436 1493c228 0 395.999 -60.667 503.999 -182s162 -310 162 -566c0 -254.667 -54.167 -442.5 -162.5 -563.5s-276.166 -181.5 -503.499 -181.5h-303v709h-125v149h125v635h303zM435.999 166c170 0 288.667 41.8311 356 125.498s101 234.834 101 453.501
c0 220.667 -33.5 372.834 -100.5 456.501s-185.833 125.5 -356.5 125.5h-96v-469h264v-149h-264v-543h96z" />
    <glyph glyph-name="uni018A" unicode="&#x18a;" 
d="M326 1493h233c228 0 396 -60.667 504 -182s162 -310 162 -566c0 -254.667 -54 -442.5 -162 -563.5s-276 -181.5 -504 -181.5h-233v1327c-36 0 -74 -15.667 -114 -47c-32 -25.333 -48 -76 -48 -152v-49h-156v70c0 120.667 32 208.167 96 262.5s138 81.5 222 81.5zM555 166
c170 0 288.667 41.8311 356 125.498s101 234.834 101 453.501c0 220.667 -33.5 372.834 -100.5 456.501s-185.833 125.5 -356.5 125.5h-26v-1161h26z" />
    <glyph glyph-name="uni018B" unicode="&#x18b;" 
d="M899 713h-239c-112 0 -194.333 -22.833 -247 -68.5s-79 -117.167 -79 -214.5c0 -94 25 -161.5 75 -202.5s133.667 -61.5 251 -61.5h239v547zM200 1327v166h902v-1493h-442c-175.333 0 -307.333 34.5 -396 103.5s-133 171.167 -133 306.5c0 107.333 17.667 194.333 53 261
c67.333 127.333 227.333 196 480 206h235v450h-699z" />
    <glyph glyph-name="uni018C" unicode="&#x18c;" 
d="M351 559c0 -142.667 22.667 -250.331 68 -322.998s112.333 -109 201 -109c89.333 0 157 36.667 203 110s69 180.666 69 321.999c0 142 -23 249.5 -69 322.5s-113.667 109.5 -203 109.5c-88.667 0 -155.667 -36.333 -201 -109s-68 -180.334 -68 -323.001zM324 1372v184
h752v-1556h-184v141c-30.667 -55.333 -71.5 -97.5 -122.5 -126.5s-109.833 -43.5 -176.5 -43.5c-135.333 0 -241.833 52.5 -319.5 157.5s-116.5 249.833 -116.5 434.5c0 182 38.667 324.833 116 428.5s183.333 155.5 318 155.5c68 0 127.833 -14.667 179.5 -44
s92.167 -71.333 121.5 -126v395h-568z" />
    <glyph glyph-name="uni018D" unicode="&#x18d;" 
d="M616 127c93.333 0 164 36.333 212 109s72 180.334 72 323.001c0 142 -24 249.5 -72 322.5s-118.667 109.5 -212 109.5c-94 0 -165 -36.5 -213 -109.5s-72 -180.5 -72 -322.5c0 -142.667 24 -250.334 72 -323.001s119 -109 213 -109zM898 51
c12.667 -6 32.333 -22.333 59 -49c41.333 -40.667 62 -91.667 62 -153c0 -90.667 -39.333 -163.334 -118 -218.001c-79.333 -54.667 -184.666 -82 -315.999 -82c-68 0 -118.667 4 -152 12l-151 36v173c44 -16 89.333 -29 136 -39c50 -10 99.333 -15 148 -15h19l32 1
c48.667 1.33301 93 16.333 133 45l39 28c18 16 27 39.333 27 70c0 22 -4.33301 39.333 -13 52c-11.333 16 -30.666 31 -57.999 45c-16 8.66699 -59 13.334 -129 14.001c-156.667 2 -275.334 52.333 -356.001 151c-82.667 100.667 -124 246.334 -124 437.001
c0 191.333 41 337.166 123 437.499s201 150.5 357 150.5c155.333 0 274 -50.167 356 -150.5s123 -246.166 123 -437.499c0 -190.667 -41 -336.334 -123 -437.001c-20.667 -25.333 -45.334 -49 -74.001 -71z" />
    <glyph glyph-name="uni018E" unicode="&#x18e;" 
d="M1102 1493v-1493h-905v170h703v541h-654v170h654v442h-684v170h886z" />
    <glyph glyph-name="uni018F" unicode="&#x18f;" 
d="M117 745v83.001h787v8c0 160.667 -23 287.5 -69 380.5s-119 139.5 -219 139.5c-57.333 0 -114.333 -10.667 -171 -32s-109.667 -52.333 -159 -93v207c51.333 27.333 104 47.833 158 61.5s111.333 20.5 172 20.5c168.667 0 294.167 -64 376.5 -192
s123.5 -322.333 123.5 -583c0 -260 -41.167 -454 -123.5 -582s-207.833 -192 -376.5 -192s-294 63.667 -376 191s-123 321.666 -123 582.999zM332 644.001c0 -165.333 23.332 -291.5 69.999 -378.5s119.334 -130.5 218.001 -130.5s169 42.5 211 127.5s66 212.167 72 381.5
h-571z" />
    <glyph glyph-name="uni0190" unicode="&#x190;" 
d="M440 799c-87.333 22.667 -153.838 61.0029 -199.505 115.003s-68.5 122 -68.5 204c0 120.667 43.5 217.834 130.5 291.501s203.167 110.5 348.5 110.5c48.667 0 104.5 -5.33301 167.5 -16s134.833 -26.667 215.5 -48v-186c-69.333 26.667 -135.666 46.667 -198.999 60
s-124.666 20 -183.999 20c-89.333 0 -158.166 -20.5 -206.499 -61.5s-72.5 -99.833 -72.5 -176.5c0 -72.667 26 -129.334 78 -170.001s124.333 -61 217 -61h154v-166h-154c-101.333 0 -181.666 -25.5 -240.999 -76.5s-89 -119.833 -89 -206.5c0 -94 29.667 -166 89 -216
s144.333 -75 255 -75c65.333 0 131 8.66699 197 26s133 43.666 201 78.999v-201c-68.667 -24 -138.667 -42.333 -210 -55s-141.333 -19 -210 -19c-163.333 0 -291.166 39.167 -383.499 117.5s-138.5 186.166 -138.5 323.499c0 99.333 26 182.166 78 248.499
s127 112.5 225 138.5z" />
    <glyph glyph-name="uni0191" unicode="&#x191;" 
d="M380 1493h790v-170h-587v-440h524v-170h-524v-733c0 -130 -29.667 -230 -89 -300c-60 -70.667 -145 -106 -255 -106h-176v156h138c60 0 105 20.667 135 62c29.333 41.333 44 104 44 188v1513z" />
    <glyph glyph-name="florin" unicode="&#x192;" 
d="M1063 1556v-152.999h-209h-2c-64.667 0 -110 -13.667 -136 -41c-25.333 -26.667 -38 -74.334 -38 -143.001v-99h385v-143h-385v-997c0 -142.667 -27 -246 -81 -310c-54.667 -64 -142.334 -96 -263.001 -96h-70v156h49c70 0 117.667 16 143 48
c25.333 32.667 38 100 38 202l-2 997h-297v143h296v78c0 120 29 210.667 87 272c24.667 26 57 46 97 60c46.667 17.333 102.334 26 167.001 26h9h3h209z" />
    <glyph glyph-name="uni0193" unicode="&#x193;" 
d="M1054 123c-54.667 -50 -115.667 -87.833 -183 -113.5s-140.333 -38.5 -219 -38.5c-189.333 0 -336.666 67.833 -441.999 203.5s-158 325.834 -158 570.501c0 244 53.333 434.167 160 570.5s254.667 204.5 444 204.5c62.667 0 122.667 -8.66699 180 -26l34 -12
c10 17.333 22 34.333 36 51c60 70.667 145.333 106 256 106h19v-156c-56 0 -101 -20.667 -135 -62c-28.667 -36 -43.334 -98.667 -44.001 -188v-27c-53.333 51.333 -108.333 89.166 -165 113.499s-117 36.5 -181 36.5c-130.667 0 -229 -50.833 -295 -152.5
s-99 -254.5 -99 -458.5c0 -207.333 32 -360.833 96 -460.5s162 -149.5 294 -149.5c44 0 83 5.16699 117 15.5s64.333 26.5 91 48.5v401h-216v166h410v-643z" />
    <glyph glyph-name="uni0194" unicode="&#x194;" 
d="M730 650c216 -299.333 324 -580.668 324 -844.001c0 -157.333 -138.667 -236 -416 -236c-293.333 0 -440 78.667 -440 236c0 244.667 98 528.334 294 851.001l-464 696h216l372 -555l372 555h218zM600 494.998c-132 -200.667 -198 -409 -198 -625c0 -92 72 -138 216 -138
c136 0 204 46 204 138c0 216.667 -74 425 -222 625z" />
    <glyph glyph-name="uni0195" unicode="&#x195;" 
d="M755 694l0.000976562 -288h-1c0 -102 11.333 -169.333 34 -202c25.333 -34.667 56.333 -50.667 93 -48c12.667 1.33301 37 26.333 73 75c31.333 44 47 118 47 222v411h167v-411c0 -152 -25.333 -265.5 -76 -340.5s-127.334 -112.5 -230.001 -112.5
c-84.667 0 -151.667 32 -201 96c-48.667 64 -73 167.333 -73 310v288c0 100.667 -15.833 174.667 -47.5 222s-69.5 71 -113.5 71c-47.333 0 -91.833 -30.5 -133.5 -91.5s-62.5 -148.5 -62.5 -262.5v-633h-166v1556h166v-604c51.333 89.333 82.666 138 93.999 146
c50 32.667 103.333 49 160 49c78.667 0 143.334 -37.5 194.001 -112.5s76 -188.5 76 -340.5z" />
    <glyph glyph-name="uni0196" unicode="&#x196;" 
d="M514 1323l-313.001 0.000976562v170h829v-170h-313v-902c0 -84.667 14.667 -147.334 44 -188.001c30 -41.333 75 -62 135 -62h185l1 -171h-217c-113.333 -0 -200.666 35.333 -261.999 106c-59.333 68 -89 168 -89 300v917z" />
    <glyph glyph-name="uni0197" unicode="&#x197;" 
d="M201 1493h829v-170h-313v-576h2h265v-170h-265h-2v-407h313v-170h-829v170h313v407h-263v170h263v576h-313v170z" />
    <glyph glyph-name="uni0198" unicode="&#x198;" 
d="M647 1180c107.333 113.333 196 174 266 182c14 2 27.667 3 41 3c84 0 156.667 -33 218 -99l47 -51l-106 -114l-33 37c-30 34 -65 51 -105 51c-11.333 0 -23.333 -1.33301 -36 -4c-44 -10 -102.333 -53.333 -175 -130l-164 -172l598 -883h-244l-487 748l-154 -164v-584
h-203v1493h203v-664z" />
    <glyph glyph-name="uni0199" unicode="&#x199;" 
d="M236 1002v148c0 130 29.667 230 89 300c60 70.667 145 106 255 106h205v-156h-185c-60 0 -105 -20.667 -135 -62c-29.333 -41.333 -44 -104 -44 -188h5v-495l483 465h224l-441 -422l510 -698h-225l-414 578l-137 -129v-449h-190v1002z" />
    <glyph glyph-name="uni019A" unicode="&#x19a;" 
d="M639 406c0 -82.667 15.168 -145 45.501 -187s75.166 -63 134.499 -63h215v-156h-233c-110 -0 -195.167 35.333 -255.5 106s-90.5 170.667 -90.5 300v196h-228v142h228v679h-295v144h479v-823h9h221v-142h-221h-9v-196z" />
    <glyph glyph-name="uni019B" unicode="&#x19b;" 
d="M579 1213l348 242l80 -110l-371 -258l497 -1087h-191l-321 704l-330 -704h-191l425 913l-34 74l-362 -251l-80 111l385 266l-174 380h191z" />
    <glyph glyph-name="uni019C" unicode="&#x19c;" 
d="M568 114c-22.667 -48 -51.499 -83.5 -86.499 -106.5s-77.167 -34.5 -126.5 -34.5c-90 0 -153.5 34.833 -190.5 104.5s-55.5 200.834 -55.5 393.501v1022h168v-1014c0 -158 8.83301 -256.167 26.5 -294.5s49.834 -57.5 96.501 -57.5c53.333 0 89.833 20.5 109.5 61.5
s29.5 137.833 29.5 290.5v1014h168v-1014c0 -160 9.5 -258.667 28.5 -296s53.167 -56 102.5 -56c48.667 0 82.5 20.5 101.5 61.5s28.5 137.833 28.5 290.5v1014h167v-1493h-167v96c-22 -40 -49.5 -70.5 -82.5 -91.5s-70.5 -31.5 -112.5 -31.5
c-50.667 0 -92.834 11.667 -126.501 35s-59.834 58.666 -78.501 105.999z" />
    <glyph glyph-name="uni019D" unicode="&#x19d;" 
d="M190 1493l230 -0.000976562l454 -1229v1229h175v-1493h-230l-453 1229v-1249c0 -130 -27 -230 -81 -300c-54 -70.667 -130.333 -106 -229 -106h-27v156c54 0 94.333 20.667 121 62c26.667 40.667 40 103.334 40 188.001v1513z" />
    <glyph glyph-name="uni019E" unicode="&#x19e;" 
d="M1051 694l-0.000976562 -1124h-185v1124c0 100.667 -17.667 174.667 -53 222s-90.666 71 -165.999 71c-86 0 -152.167 -30.5 -198.5 -91.5s-69.5 -148.5 -69.5 -262.5v-633h-184v1120h184v-168c32.667 64 77 112.5 133 145.5s122.333 49.5 199 49.5
c114 0 199.167 -37.5 255.5 -112.5s84.5 -188.5 84.5 -340.5z" />
    <glyph glyph-name="uni019F" unicode="&#x19f;" 
d="M1116 745c0 -260 -41.167 -453.999 -123.5 -581.999s-207.833 -192 -376.5 -192s-294 63.667 -376 191s-123 321.666 -123 582.999c0 260.667 41.167 455 123.5 583s207.5 192 375.5 192c168.667 0 294.167 -64 376.5 -192s123.5 -322.333 123.5 -583zM904 828.001
c-5.33301 176 -27.334 305 -66.001 387c-45.333 94 -119.333 141 -222 141c-102 0 -175.333 -47 -220 -141c-39.333 -82 -61.666 -211 -66.999 -387h575zM329.999 644.001c6 -166.667 28 -289.333 66 -368c44.667 -94 118 -141 220 -141c102.667 0 176.667 47 222 141
c37.333 78 59 200.667 65 368h-573z" />
    <glyph glyph-name="Ohorn" unicode="&#x1a0;" 
d="M796 1292v118.997c40.667 -30 75.667 -52.167 105 -66.5s54.333 -21.5 75 -21.5c30.667 0 53.667 9.16699 69 27.5s23 45.5 23 81.5c0 21.333 -2.5 42.333 -7.5 63s-12.5 41.334 -22.5 62.001h133c6.66699 -25.333 11.667 -49.333 15 -72s5 -44 5 -64
c0 -81.333 -14.5 -141.166 -43.5 -179.499s-74.5 -57.5 -136.5 -57.5c-32 0 -65.5 8.83301 -100.5 26.5s-73.167 44.834 -114.5 81.501zM795 744.997c0 219.333 -22.5 376 -67.5 470s-118.833 141 -221.5 141c-102 0 -175.5 -47 -220.5 -141s-67.5 -250.667 -67.5 -470
c0 -218.667 22.5 -375 67.5 -469s118.5 -141 220.5 -141c102.667 0 176.5 46.833 221.5 140.5s67.5 250.167 67.5 469.5zM1006 744.997c0 -260 -41.167 -453.999 -123.5 -581.999s-207.833 -192 -376.5 -192s-294 63.667 -376 191s-123 321.666 -123 582.999
c0 260.667 41.167 455 123.5 583s207.5 192 375.5 192c168.667 0 294.167 -64 376.5 -192s123.5 -322.333 123.5 -583z" />
    <glyph glyph-name="ohorn" unicode="&#x1a1;" 
d="M807 872v118.997c40.667 -30 75.667 -52.167 105 -66.5s54.333 -21.5 75 -21.5c30.667 0 53.667 9.16699 69 27.5s23 45.5 23 81.5c0 21.333 -2.5 42.333 -7.5 63s-12.5 41.334 -22.5 62.001h133c6.66699 -25.333 11.667 -49.333 15 -72s5 -44 5 -64
c0 -81.333 -14.5 -141.166 -43.5 -179.499s-74.5 -57.5 -136.5 -57.5c-32 0 -65.5 8.83301 -100.5 26.5s-73.167 44.834 -114.5 81.501zM512 990.997c-93.333 0 -164 -36.333 -212 -109s-72 -180.334 -72 -323.001c0 -142 24 -249.5 72 -322.5s118.667 -109.5 212 -109.5
c94 0 165 36.5 213 109.5s72 180.5 72 322.5c0 142.667 -24 250.334 -72 323.001s-119 109 -213 109zM512 1147c155.333 0 274.167 -50.333 356.5 -151s123.5 -246.334 123.5 -437.001c0 -191.333 -41 -337.166 -123 -437.499s-201 -150.5 -357 -150.5
c-155.333 0 -274 50.167 -356 150.5s-123 246.166 -123 437.499c0 190.667 41 336.334 123 437.001s200.667 151 356 151z" />
    <glyph glyph-name="uni01A2" unicode="&#x1a2;" 
d="M45 745c0 448 111.334 701.668 334.001 761.001c35.333 9.33301 73.666 14 114.999 14c137.333 0 243 -52.667 317 -158l147 131h230v-1493h-175v1229l-180 -160v-906c-74 -128 -187 -192 -339 -192s-264.833 63.667 -338.5 191s-110.5 321.666 -110.5 582.999z
M693.001 1215c-40.667 94 -107 141 -199 141s-158.167 -47 -198.5 -141s-60.5 -250.667 -60.5 -470c0 -218.667 20.167 -375 60.5 -469s106.5 -141 198.5 -141s158.333 47 199 141v939z" />
    <glyph glyph-name="uni01A3" unicode="&#x1a3;" 
d="M86 559c0 290.667 83.334 474.334 250.001 551.001c53.333 24.667 113.666 37 180.999 37c140 0 247 -50.333 321 -151v-43l126 110h231v-1493h-176v1229l-181 -157v-520c-73.333 -100.667 -180.333 -151 -321 -151c-156 0 -271 62.667 -345 188
c-57.333 97.333 -86 230.666 -86 399.999zM262.001 559c0 -263.333 71.667 -406.333 215 -429c12.667 -2 26 -3 40 -3c84.667 0 148.667 36.333 192 109v646c-43.333 72.667 -107.333 109 -192 109c-137.333 0 -219.333 -95.333 -246 -286c-6 -44 -9 -92.667 -9 -146z" />
    <glyph glyph-name="uni01A4" unicode="&#x1a4;" 
d="M1177 1047c0 -232 -104.001 -373.668 -312.001 -425.001c-57.333 -14.667 -122.666 -22 -195.999 -22h-93v-600h-202v1327c-36 0 -74 -15.667 -114 -47c-32 -25.333 -48 -76 -48 -152v-49h-156v70c0 120.667 32 208.334 96 263.001c64 54 138 81 222 81h295
c271.333 0 434.333 -97.333 489 -292c12.667 -46 19 -97.333 19 -154zM668.999 765.999c140.667 0 232.333 52.334 275 157.001c14.667 37.333 22 78.666 22 123.999c0 88.667 -26 157.5 -78 206.5s-125 73.5 -219 73.5h-93v-561h93z" />
    <glyph glyph-name="uni01A5" unicode="&#x1a5;" 
d="M375 559c0 -250 69.668 -391.668 209.001 -425.001c19.333 -4.66699 40.333 -7 63 -7c88.667 0 155.5 36.333 200.5 109s67.5 180.334 67.5 323.001c0 278.667 -83.667 422.667 -251 432h-17c-142.667 0 -229.334 -91 -260.001 -273c-8 -46.667 -12 -99.667 -12 -159z
M375.001 976.999c60.667 109.333 155.667 166 285 170h14c135.333 0 241.5 -52.333 318.5 -157s115.5 -249.667 115.5 -435c0 -182 -38.667 -324.833 -116 -428.5s-183.333 -155.5 -318 -155.5c-68 0 -127.5 14.5 -178.5 43.5s-91.167 71.167 -120.5 126.5v-567h-185v1452
c0 201.333 67.667 328.333 203 381c42 16.667 89 25 141 25h205v-156h-185c-112.667 0 -172 -73.667 -178 -221c-0.666992 -9.33301 -1 -19 -1 -29v-49z" />
    <glyph glyph-name="uni01A6" unicode="&#x1a6;" 
d="M760 441c52 -13.333 96.333 -38.333 133 -75c36 -36.667 81.667 -110.667 137 -222l203 -408h-217l-178 377c-51.333 107.333 -97.5 176.5 -138.5 207.5s-94.5 46.5 -160.5 46.5h-193v-367h-203v1493h203v-264h213c164 0 289.667 -37 377 -111s131 -181 131 -321
c0 -98.667 -26.833 -179.167 -80.5 -241.5s-129.167 -100.5 -226.5 -114.5zM346 1063v-529.999h221c96.667 0 168.667 21.667 216 65s71 109.666 71 198.999c0 86 -25.167 151.833 -75.5 197.5s-123.5 68.5 -219.5 68.5h-213z" />
    <glyph glyph-name="uni01A7" unicode="&#x1a7;" 
d="M225 1442c70 26 136.67 45.4971 200.003 58.4971s123.666 19.5 180.999 19.5c148.667 0 267.834 -40.167 357.501 -120.5s134.5 -187.166 134.5 -320.499c0 -106.667 -31.333 -191.667 -94 -255s-163.334 -110.666 -302.001 -141.999l-108 -25
c-96.667 -21.333 -164.5 -51.666 -203.5 -90.999s-58.5 -96.333 -58.5 -171c0 -82 28.333 -145.833 85 -191.5s136 -68.5 238 -68.5c69.333 0 138.166 11.333 206.499 34s140.833 58.334 217.5 107.001v-215c-71.333 -30 -142.333 -52.5 -213 -67.5s-141 -22.5 -211 -22.5
c-168 0 -296 37.333 -384 112s-132 183 -132 325c0 120.667 32 216 96 286s166 121.333 306 154l106 24c99.333 23.333 167.166 52.333 203.499 87s54.5 85 54.5 151c0 75.333 -27.667 135.166 -83 179.499s-130.666 66.5 -225.999 66.5
c-62.667 0 -124.834 -10 -186.501 -30s-123.167 -49.667 -184.5 -89v205z" />
    <glyph glyph-name="uni01A8" unicode="&#x1a8;" 
d="M270 1081c53.333 22 107.665 38.499 162.998 49.499s113 16.5 173 16.5c134.667 0 238.334 -29.167 311.001 -87.5s109 -141.166 109 -248.499c0 -84.667 -24.333 -151.5 -73 -200.5s-126 -83.833 -232 -104.5l-69 -14l-8 -2c-163.333 -32.667 -245 -91.667 -245 -177
c0 -59.333 22.333 -105.5 67 -138.5s107.667 -49.5 189 -49.5c56 0 115.333 8.83301 178 26.5s128.334 44.167 197.001 79.5v-190c-70.667 -23.333 -136.334 -40.833 -197.001 -52.5s-118.667 -17.5 -174 -17.5c-140 0 -249.333 31.167 -328 93.5s-118 148.833 -118 259.5
c0 83.333 23.5 151 70.5 203s116.167 86.667 207.5 104l74 14c122 23.333 198.333 47.333 229 72s46 62 46 112c0 55.333 -20.5 96.5 -61.5 123.5s-103.167 40.5 -186.5 40.5c-55.333 0 -109.666 -7.66699 -162.999 -23s-106.333 -38.333 -159 -69v180z" />
    <glyph glyph-name="uni01A9" unicode="&#x1a9;" 
d="M786 747l-455 -577h802v-170h-1013v170l454 577l-454 576v170h1013v-170h-802z" />
    <glyph glyph-name="uni01AA" unicode="&#x1aa;" 
d="M568 1284c-4.66699 30 -13 52.667 -25 68c-22 32 -69.667 48 -143 48c-82.667 0 -125 -21.667 -127 -65c-2 -34 36.667 -51 116 -51h179zM765 1130l-2.00195 -1219c0 -68.667 13 -116.667 39 -144c24.667 -26.667 70.334 -40 137.001 -40h176v-153h-174
c-130 0 -222 28.667 -276 86c-58 61.333 -87 152 -87 272v1198h-190c-180 0 -270 70 -270 210c0 144 101 216 303 216c120.667 0 208.334 -32 263.001 -96c35.333 -42.667 59 -101 71 -175h191v-155h-181z" />
    <glyph glyph-name="uni01AB" unicode="&#x1ab;" 
d="M614 1438v-317.998h418v-143h-418v-608c0 -82.667 15.667 -140.334 47 -173.001s86 -49 164 -49h207v-147v-20c0 -130 -29.667 -230 -89 -300c-60 -70.667 -145 -106 -255 -106h-205v156h185c60 0 105 20.667 135 62c29.333 41.333 44 104 44 188v20h-40
c-138 0 -235.333 27.667 -292 83s-85 150.666 -85 285.999v608h-299v143h299v318h184z" />
    <glyph glyph-name="uni01AC" unicode="&#x1ac;" 
d="M453 1327c-87.333 5.33301 -154.333 -10.333 -201 -47c-32.667 -25.333 -49 -76 -49 -152v-49h-156v70c0 120.667 32 208.167 96 262.5s167.333 81.5 310 81.5h733v-170h-467v-1323h-203v1323z" />
    <glyph glyph-name="uni01AD" unicode="&#x1ad;" 
d="M614 1120l418 0.00195312v-143h-418v-608c0 -82.667 15.667 -140.334 47 -173.001s86 -49 164 -49h207v-147h-225c-138 0 -235.333 27.667 -292 83s-85 150.666 -85 285.999v608h-299v143h298v30c0 130 29.667 230 89 300c60 70.667 145 106 255 106h205v-156h-185
c-60 0 -105 -20.667 -135 -62c-29.333 -41.333 -44 -104 -44 -188v-30z" />
    <glyph glyph-name="uni01AE" unicode="&#x1ae;" 
d="M47 1493h1139v-170h-467v-1343c0 -84 14.667 -146.667 44 -188c30 -41.333 75 -62 135 -62h185v-156h-223c-110 0 -195 35.333 -255 106c-59.333 70 -89 170 -89 300v1343h-469v170z" />
    <glyph glyph-name="Uhorn" unicode="&#x1af;" 
d="M829 1296v118.997c40.667 -30 75.667 -52.167 105 -66.5s54.333 -21.5 75 -21.5c30.667 0 53.667 9.16699 69 27.5s23 45.5 23 81.5c0 21.333 -2.5 42.333 -7.5 63s-12.5 41.334 -22.5 62.001h133c6.66699 -25.333 11.667 -49.333 15 -72s5 -44 5 -64
c0 -81.333 -14.5 -141.166 -43.5 -179.499s-74.5 -57.5 -136.5 -57.5c-32 0 -65.5 8.83301 -100.5 26.5s-73.167 44.834 -114.5 81.501zM10 572.997l0.00390625 919.998h203v-1012c0 -72.667 2 -124.5 6 -155.5s11 -54.833 21 -71.5c21.333 -39.333 52.166 -69 92.499 -89
s89.166 -30 146.499 -30c58 0 107 10 147 30s71 49.667 93 89c10 16.667 17 40.334 21 71.001s6 82 6 154v1014h202v-920c0 -152.667 -9.5 -261.167 -28.5 -325.5s-51.833 -117.5 -98.5 -159.5c-44 -39.333 -94.333 -68.666 -151 -87.999s-120.334 -29 -191.001 -29
c-70 0 -133.333 9.66699 -190 29s-107.334 48.666 -152.001 87.999c-46 41.333 -78.667 94.833 -98 160.5s-29 173.834 -29 324.501z" />
    <glyph glyph-name="uhorn" unicode="&#x1b0;" 
d="M799 872v118.997c40.667 -30 75.667 -52.167 105 -66.5s54.333 -21.5 75 -21.5c30.667 0 53.667 9.16699 69 27.5s23 45.5 23 81.5c0 21.333 -2.5 42.333 -7.5 63s-12.5 41.334 -22.5 62.001h133c6.66699 -25.333 11.667 -49.333 15 -72s5 -44 5 -64
c0 -81.333 -14.5 -141.166 -43.5 -179.499s-74.5 -57.5 -136.5 -57.5c-32 0 -65.5 8.83301 -100.5 26.5s-73.167 44.834 -114.5 81.501zM40 423.997l-0.00195312 694h184v-694c0 -100.667 17.833 -174.667 53.5 -222s90.834 -71 165.501 -71c86.667 0 153 30.5 199 91.5
s69 148.5 69 262.5v633h185v-1118h-185v168c-32.667 -64.667 -77.167 -113.667 -133.5 -147s-122.166 -50 -197.499 -50c-114.667 0 -200 37.5 -256 112.5s-84 188.5 -84 340.5z" />
    <glyph glyph-name="uni01B1" unicode="&#x1b1;" 
d="M1159 1460l-0.00195312 -172h-245c82 -89.333 141.333 -182 178 -278s55 -206.667 55 -332c0 -207.333 -48 -372.166 -144 -494.499s-224 -183.5 -384 -183.5c-161.333 0 -290.166 61 -386.499 183s-144.5 287 -144.5 495c0 125.333 18.5 236.166 55.5 332.499
s96.5 188.833 178.5 277.5h-248v172h463v-172c-80 -50.667 -142.333 -130.834 -187 -240.501s-67 -238.5 -67 -386.5c0 -153.333 30 -274.166 90 -362.499s141.333 -132.5 244 -132.5s183.834 44.167 243.501 132.5s89.5 209.166 89.5 362.499
c0 148 -22.333 276.833 -67 386.5s-107 189.834 -187 240.501v172h463z" />
    <glyph glyph-name="uni01B2" unicode="&#x1b2;" 
d="M506 0c-113.333 0 -200.667 35.333 -262 106c-60 68 -90 168 -90 300v1087h204v-1072c0 -84 14.667 -146.667 44 -188s74 -62 134 -62c102.667 0 184 44.167 244 132.5s90 209.166 90 362.499c0 148 -22.333 276.833 -67 386.5s-107 189.834 -187 240.501h218
c81.333 -89.333 140.333 -182 177 -278s55 -206.667 55 -332c0 -207.333 -48 -372.333 -144 -495c-98 -125.333 -236.667 -188 -416 -188z" />
    <glyph glyph-name="uni01B3" unicode="&#x1b3;" 
d="M875 1140l-245.998 -470v-670h-183v670l-429 823h193l328 -659l199 401c66 133.333 135.333 214 208 242c30.667 12 61 18 91 18c53.333 0 105 -19 155 -57l25 -19l-71 -134l-10 9c-22.667 20.667 -47.334 31 -74.001 31c-18.667 0 -38.334 -5.33301 -59.001 -16
c-34 -16 -76.333 -72.333 -127 -169z" />
    <glyph glyph-name="uni01B4" unicode="&#x1b4;" 
d="M622 -104c-54 -135.333 -104.666 -222.333 -151.999 -261c-49.333 -40.667 -115.333 -61 -198 -61h-147v154h108c50.667 0 90 12 118 36s59 80.667 93 170l33 84l-453 1102h195l350 -876l279 699c33.333 84 77 139.667 131 167c28.667 14.667 60 22 94 22
c32.667 0 67.334 -6.66699 104.001 -20l48 -17l-53 -147l-28 10c-18.667 7.33301 -35.334 11 -50.001 11c-28.667 0 -48.334 -13.667 -59.001 -41z" />
    <glyph glyph-name="uni01B5" unicode="&#x1b5;" 
d="M178 1493h969v-154l-395 -592h232v-170h-265h-80l-272 -407h802v-170h-1013v154l275 423h-180v170h290l374 576h-737v170z" />
    <glyph glyph-name="uni01B6" unicode="&#x1b6;" 
d="M222 1122h813v-168l-270 -338h312v-164h-354h-89l-242 -302h643v-150h-837v170l225 282h-267v164h398l287 359h-619v147z" />
    <glyph glyph-name="uni01B7" unicode="&#x1b7;" 
d="M228 435c0 -95.333 33.334 -168 100.001 -218c66 -50 162.167 -75 288.5 -75s222.833 25 289.5 75s100 122.667 100 218c0 89.333 -30.667 158.333 -92 207c-62.667 49.333 -148.667 74 -258 74h-174v166l370 441h-738v170h970v-168l-376 -441
c69.333 0 147.333 -18.667 234 -56c65.333 -28.667 126.666 -79 183.999 -151c53.333 -69.333 80 -150 80 -242c0 -147.333 -50.667 -261.333 -152 -342s-245.333 -121 -432 -121c-194.667 0 -342.667 40.333 -444 121s-152 194.667 -152 342h202z" />
    <glyph glyph-name="uni01B8" unicode="&#x1b8;" 
d="M1006 435h200c0 -147.333 -50.667 -261.333 -152 -342s-249.333 -121 -444 -121c-186.667 0 -330.667 40.333 -432 121s-152 194.667 -152 342c0 92 27.333 172.667 82 242c56.667 72 118 122.333 184 151c86 37.333 164 56 234 56l-376 441v168h968v-170h-736l370 -441
v-166h-174c-110.667 0 -196.667 -24.667 -258 -74c-61.333 -48.667 -92 -117.667 -92 -207c0 -95.333 33.333 -168 100 -218c66 -50 162.167 -75 288.5 -75s222.833 25 289.5 75s100 122.667 100 218z" />
    <glyph glyph-name="uni01B9" unicode="&#x1b9;" 
d="M624 476l-410.999 476v168h874v-147h-667l430 -499v-166h-174c-110 0 -196 -24.667 -258 -74c-61.333 -50 -92 -119 -92 -207c0 -95.333 33.333 -168 100 -218c66 -50 162.333 -75 289 -75c72.667 0 142.334 8.33301 209.001 25s128 41.334 184 74.001v-195
c-70.667 -24.667 -139.334 -43.334 -206.001 -56.001c-66 -12 -130.333 -18 -193 -18c-186.667 0 -330.667 40.333 -432 121s-152 194.667 -152 342c0 92 27 172.667 81 242c57.333 72.667 118.666 123 183.999 151c85.333 37.333 163.333 56 234 56z" />
    <glyph glyph-name="uni01BA" unicode="&#x1ba;" 
d="M699 -274c56 0 109.667 7 161 21c52.667 14 106 35.667 160 65v-179c-58 -21.333 -113.667 -36.333 -167 -45c-57.333 -9.33301 -118.333 -14 -183 -14c-320 0 -480 93.667 -480 281c0 158.667 135.333 255.667 406 291c189.333 24.667 284 69.667 284 135
c0 82.667 -78.333 124 -235 124h-290l485 568h-667v147h874v-168l-354 -412c244.667 0 367 -76.333 367 -229c0 -184 -154.667 -292.333 -464 -325c-150.667 -16 -226 -56.333 -226 -121c0 -92.667 109.667 -139 329 -139z" />
    <glyph glyph-name="uni01BB" unicode="&#x1bb;" 
d="M164 1421c138.667 66 271.667 99 399 99c146 0 263.5 -38.833 352.5 -116.5s133.5 -179.5 133.5 -305.5c0 -64 -15 -128 -45 -192c-22.667 -49.333 -56 -102.333 -100 -159h80v-170h-230l-56 -63l-325 -344h686v-170h-907v170l382 407h-283v170h434
c70 86.667 115 158 135 214c14.667 40 22 80.667 22 122c0 123.333 -50 205 -150 245c-38 14.667 -79.667 22 -125 22c-120.667 0 -255 -44.333 -403 -133v204z" />
    <glyph glyph-name="uni01BC" unicode="&#x1bc;" 
d="M616 142c210.667 0 336.332 66.333 376.999 199c8.66699 28.667 13 60 13 94c0 89.333 -30.667 158.333 -92 207c-62.667 49.333 -148.667 74 -258 74h-441v777h924v-170h-721v-439h290c70 0 148 -18.667 234 -56c66 -28.667 127.333 -79 184 -151
c53.333 -67.333 80 -148 80 -242c0 -147.333 -50.667 -261.333 -152 -342s-245.333 -121 -432 -121c-286.667 0 -470.667 85.333 -552 256c-29.333 60.667 -44 129.667 -44 207h202c0 -120.667 52.667 -204.667 158 -252c60.667 -27.333 137.334 -41 230.001 -41z" />
    <glyph glyph-name="uni01BD" unicode="&#x1bd;" 
d="M518 -266c207.333 0 332 65 374 195c10 30 15 62.667 15 98c0 89.333 -30.667 158.333 -92 207c-62 49.333 -148 74 -258 74h-300v812h752v-184h-568v-461l168 1c68.667 0.666992 146.667 -18 234 -56c66 -28.667 127.333 -79 184 -151c54 -69.333 81 -150 81 -242
c0 -147.333 -50.667 -261.333 -152 -342s-245.333 -121 -432 -121c-124.667 0 -257.667 24.667 -399 74v195c113.333 -66 244.333 -99 393 -99z" />
    <glyph glyph-name="uni01BE" unicode="&#x1be;" 
d="M845 439c0 76 -24.668 140.331 -74.001 192.998c-59.333 63.333 -146.666 95 -261.999 95h-62v271h-229v164h229v276h202v-276h231v-164h-231v-125c110 -19.333 201 -65.666 273 -138.999c78 -79.333 117 -177.666 117 -294.999c0 -123.333 -36.667 -227 -110 -311
c-92 -104.667 -229.333 -157 -412 -157c-114 0 -221.667 23.333 -323 70v172c104 -57.333 209 -86 315 -86c119.333 0 212 38 278 114c38 43.333 57.333 109.333 58 198z" />
    <glyph glyph-name="uni01BF" unicode="&#x1bf;" 
d="M310 -122v-304h-185v1546h185v-170c34.667 44 97 93.333 187 148c54 32.667 151 49 291 49c122.667 0 209.667 -37.333 261 -112c52 -75.333 78 -164 78 -266c0 -283.333 -272.333 -580.333 -817 -891zM310 60c417.333 266.667 626 483 626 649c0 88.667 -19 155 -57 199
c-37.333 43.333 -96 65 -176 65c-146.667 0 -277.667 -79.667 -393 -239v-674z" />
    <glyph glyph-name="uni01C0" unicode="&#x1c0;" 
d="M516 1493h202v-1493h-202v1493z" />
    <glyph glyph-name="uni01C1" unicode="&#x1c1;" 
d="M315 1493h202v-1493h-202v1493zM718 1493h202v-1493h-202v1493z" />
    <glyph glyph-name="uni01C2" unicode="&#x1c2;" 
d="M516 1493h202v-404h350v-168h-350v-240h350v-170h-350v-511h-202v511h-352v170h352v240h-352v168h352v404z" />
    <glyph glyph-name="uni01C3" unicode="&#x1c3;" 
d="M524 120c0 34 12.5 63.167 37.5 87.5s55.167 36.5 90.5 36.5s65.5 -12.167 90.5 -36.5s37.5 -53.5 37.5 -87.5s-12.5 -63.167 -37.5 -87.5s-55.167 -36.5 -90.5 -36.5s-65.5 12.167 -90.5 36.5s-37.5 53.5 -37.5 87.5zM546 1493h203v-655l-21 -307h-161l-21 307v655z" />
    <glyph glyph-name="uni01CD" unicode="&#x1cd;" 
d="M616 1315l-213 -764h426zM494 1493h245l457 -1493h-209l-110 389h-523l-108 -389h-209zM522 1635l-211 266h140l165 -178l166 178h140l-211 -266h-189z" />
    <glyph glyph-name="uni01CE" unicode="&#x1ce;" 
d="M702 563h-61.001c-107.333 0 -188.166 -18.833 -242.499 -56.5s-81.5 -93.834 -81.5 -168.501c0 -67.333 20.333 -119.666 61 -156.999s97 -56 169 -56c101.333 0 181 35.167 239 105.5s87.333 167.5 88 291.5v41h-172zM1059 639l-0.000976562 -638.999h-185v166
c-39.333 -66.667 -88.833 -115.834 -148.5 -147.501s-132.167 -47.5 -217.5 -47.5c-114 0 -205 32.167 -273 96.5s-102 150.5 -102 258.5c0 124.667 41.833 219.334 125.5 284.001s206.5 97 368.5 97h247v29c-0.666992 89.333 -23.334 154.166 -68.001 194.499
s-116 60.5 -214 60.5c-62.667 0 -126 -9 -190 -27s-126.333 -44.333 -187 -79v184c68 26 133.167 45.5 195.5 58.5s122.833 19.5 181.5 19.5c92.667 0 171.834 -13.667 237.501 -41s118.834 -68.333 159.501 -123c25.333 -33.333 43.333 -74.5 54 -123.5
s16 -122.5 16 -220.5zM542.998 1262l-246 376h139l180 -245l181 245h139l-246 -376h-147z" />
    <glyph glyph-name="uni01CF" unicode="&#x1cf;" 
d="M201 1493h829v-170h-313v-1153h313v-170h-829v170h313v1153h-313v170zM522 1635l-211 266h140l165 -178l166 178h140l-211 -266h-189z" />
    <glyph glyph-name="uni01D0" unicode="&#x1d0;" 
d="M256 1120h471v-977h365v-143h-914v143h365v834h-287v143zM543 1262l-246 376h139l180 -245l181 245h139l-246 -376h-147z" />
    <glyph glyph-name="uni01D1" unicode="&#x1d1;" 
d="M905 745c0 219.333 -22.5 376 -67.5 470s-118.833 141 -221.5 141c-102 0 -175.5 -47 -220.5 -141s-67.5 -250.667 -67.5 -470c0 -218.667 22.5 -375 67.5 -469s118.5 -141 220.5 -141c102.667 0 176.5 46.833 221.5 140.5s67.5 250.167 67.5 469.5zM1116 745
c0 -260 -41.167 -453.999 -123.5 -581.999s-207.833 -192 -376.5 -192s-294 63.667 -376 191s-123 321.666 -123 582.999c0 260.667 41.167 455 123.5 583s207.5 192 375.5 192c168.667 0 294.167 -64 376.5 -192s123.5 -322.333 123.5 -583zM522 1635l-211 266h140
l165 -178l166 178h140l-211 -266h-189z" />
    <glyph glyph-name="uni01D2" unicode="&#x1d2;" 
d="M616 991c-93.333 0 -164 -36.333 -212 -109s-72 -180.334 -72 -323.001c0 -142 24 -249.5 72 -322.5s118.667 -109.5 212 -109.5c94 0 165 36.5 213 109.5s72 180.5 72 322.5c0 142.667 -24 250.334 -72 323.001s-119 109 -213 109zM616 1147
c155.333 0 274.167 -50.333 356.5 -151s123.5 -246.334 123.5 -437.001c0 -191.333 -41 -337.166 -123 -437.499s-201 -150.5 -357 -150.5c-155.333 0 -274 50.167 -356 150.5s-123 246.166 -123 437.499c0 190.667 41 336.334 123 437.001s200.667 151 356 151z
M543.001 1262l-246 376h139l180 -245l181 245h139l-246 -376h-147z" />
    <glyph glyph-name="uni01D3" unicode="&#x1d3;" 
d="M147 573l0.00390625 919.998h203v-1012c0 -72.667 2 -124.5 6 -155.5s11 -54.833 21 -71.5c21.333 -39.333 52.166 -69 92.499 -89s89.166 -30 146.499 -30c58 0 107 10 147 30s71 49.667 93 89c10 16.667 17 40.334 21 71.001s6 82 6 154v1014h202v-920
c0 -152.667 -9.5 -261.167 -28.5 -325.5s-51.833 -117.5 -98.5 -159.5c-44 -39.333 -94.333 -68.666 -151 -87.999s-120.334 -29 -191.001 -29c-70 0 -133.333 9.66699 -190 29s-107.334 48.666 -152.001 87.999c-46 41.333 -78.667 94.833 -98 160.5
s-29 173.834 -29 324.501zM522.004 1635l-211 266h140l165 -178l166 178h140l-211 -266h-189z" />
    <glyph glyph-name="uni01D4" unicode="&#x1d4;" 
d="M195 424l-0.00195312 694h184v-694c0 -100.667 17.833 -174.667 53.5 -222s90.834 -71 165.501 -71c86.667 0 153 30.5 199 91.5s69 148.5 69 262.5v633h185v-1118h-185v168c-32.667 -64.667 -77.167 -113.667 -133.5 -147s-122.166 -50 -197.499 -50
c-114.667 0 -200 37.5 -256 112.5s-84 188.5 -84 340.5zM542.998 1262l-246 376h139l180 -245l181 245h139l-246 -376h-147z" />
    <glyph glyph-name="uni01D5" unicode="&#x1d5;" 
d="M319 1746h203v-203h-203v203zM711 1746h202v-203h-202v203zM147 573l0.00390625 919.998h203v-1012c0 -72.667 2 -124.5 6 -155.5s11 -54.833 21 -71.5c21.333 -39.333 52.166 -69 92.499 -89s89.166 -30 146.499 -30c58 0 107 10 147 30s71 49.667 93 89
c10 16.667 17 40.334 21 71.001s6 82 6 154v1014h202v-920c0 -152.667 -9.5 -261.167 -28.5 -325.5s-51.833 -117.5 -98.5 -159.5c-44 -39.333 -94.333 -68.666 -151 -87.999s-120.334 -29 -191.001 -29c-70 0 -133.333 9.66699 -190 29s-107.334 48.666 -152.001 87.999
c-46 41.333 -78.667 94.833 -98 160.5s-29 173.834 -29 324.501zM317.004 1952h598v-148h-598v148z" />
    <glyph glyph-name="uni01D6" unicode="&#x1d6;" 
d="M319 1552h203v-202h-203v202zM711 1552h202v-202h-202v202zM195 424l-0.00195312 694h184v-694c0 -100.667 17.833 -174.667 53.5 -222s90.834 -71 165.501 -71c86.667 0 153 30.5 199 91.5s69 148.5 69 262.5v633h185v-1118h-185v168
c-32.667 -64.667 -77.167 -113.667 -133.5 -147s-122.166 -50 -197.499 -50c-114.667 0 -200 37.5 -256 112.5s-84 188.5 -84 340.5zM116.998 1842h998v-148h-998v148z" />
    <glyph glyph-name="uni01D7" unicode="&#x1d7;" 
d="M319 1746h203v-203h-203v203zM711 1746h202v-203h-202v203zM147 573l0.00390625 919.998h203v-1012c0 -72.667 2 -124.5 6 -155.5s11 -54.833 21 -71.5c21.333 -39.333 52.166 -69 92.499 -89s89.166 -30 146.499 -30c58 0 107 10 147 30s71 49.667 93 89
c10 16.667 17 40.334 21 71.001s6 82 6 154v1014h202v-920c0 -152.667 -9.5 -261.167 -28.5 -325.5s-51.833 -117.5 -98.5 -159.5c-44 -39.333 -94.333 -68.666 -151 -87.999s-120.334 -29 -191.001 -29c-70 0 -133.333 9.66699 -190 29s-107.334 48.666 -152.001 87.999
c-46 41.333 -78.667 94.833 -98 160.5s-29 173.834 -29 324.501zM672.004 2041h186l-229 -264h-154z" />
    <glyph glyph-name="uni01D8" unicode="&#x1d8;" 
d="M319 1552h203v-202h-203v202zM711 1552h202v-202h-202v202zM195 424l-0.00195312 694h184v-694c0 -100.667 17.833 -174.667 53.5 -222s90.834 -71 165.501 -71c86.667 0 153 30.5 199 91.5s69 148.5 69 262.5v633h185v-1118h-185v168
c-32.667 -64.667 -77.167 -113.667 -133.5 -147s-122.166 -50 -197.499 -50c-114.667 0 -200 37.5 -256 112.5s-84 188.5 -84 340.5zM755.998 1954h198l-325 -376h-154z" />
    <glyph glyph-name="uni01D9" unicode="&#x1d9;" 
d="M319 1746h203v-203h-203v203zM711 1746h202v-203h-202v203zM147 573l0.00390625 919.998h203v-1012c0 -72.667 2 -124.5 6 -155.5s11 -54.833 21 -71.5c21.333 -39.333 52.166 -69 92.499 -89s89.166 -30 146.499 -30c58 0 107 10 147 30s71 49.667 93 89
c10 16.667 17 40.334 21 71.001s6 82 6 154v1014h202v-920c0 -152.667 -9.5 -261.167 -28.5 -325.5s-51.833 -117.5 -98.5 -159.5c-44 -39.333 -94.333 -68.666 -151 -87.999s-120.334 -29 -191.001 -29c-70 0 -133.333 9.66699 -190 29s-107.334 48.666 -152.001 87.999
c-46 41.333 -78.667 94.833 -98 160.5s-29 173.834 -29 324.501zM522.004 1777l-211 266h140l165 -178l166 178h140l-211 -266h-189z" />
    <glyph glyph-name="uni01DA" unicode="&#x1da;" 
d="M319 1552h203v-202h-203v202zM711 1552h202v-202h-202v202zM195 424l-0.00195312 694h184v-694c0 -100.667 17.833 -174.667 53.5 -222s90.834 -71 165.501 -71c86.667 0 153 30.5 199 91.5s69 148.5 69 262.5v633h185v-1118h-185v168
c-32.667 -64.667 -77.167 -113.667 -133.5 -147s-122.166 -50 -197.499 -50c-114.667 0 -200 37.5 -256 112.5s-84 188.5 -84 340.5zM542.998 1578l-246 376h139l180 -245l181 245h139l-246 -376h-147z" />
    <glyph glyph-name="uni01DB" unicode="&#x1db;" 
d="M319 1746h203v-203h-203v203zM711 1746h202v-203h-202v203zM147 573l0.00390625 919.998h203v-1012c0 -72.667 2 -124.5 6 -155.5s11 -54.833 21 -71.5c21.333 -39.333 52.166 -69 92.499 -89s89.166 -30 146.499 -30c58 0 107 10 147 30s71 49.667 93 89
c10 16.667 17 40.334 21 71.001s6 82 6 154v1014h202v-920c0 -152.667 -9.5 -261.167 -28.5 -325.5s-51.833 -117.5 -98.5 -159.5c-44 -39.333 -94.333 -68.666 -151 -87.999s-120.334 -29 -191.001 -29c-70 0 -133.333 9.66699 -190 29s-107.334 48.666 -152.001 87.999
c-46 41.333 -78.667 94.833 -98 160.5s-29 173.834 -29 324.501zM561.004 2041l197 -264h-154l-227 264h184z" />
    <glyph glyph-name="uni01DC" unicode="&#x1dc;" 
d="M477 1954l281 -376h-154l-325 376h198zM195 424l-0.00195312 694h184v-694c0 -100.667 17.833 -174.667 53.5 -222s90.834 -71 165.501 -71c86.667 0 153 30.5 199 91.5s69 148.5 69 262.5v633h185v-1118h-185v168c-32.667 -64.667 -77.167 -113.667 -133.5 -147
s-122.166 -50 -197.499 -50c-114.667 0 -200 37.5 -256 112.5s-84 188.5 -84 340.5zM318.998 1552h203v-202h-203v202zM710.998 1552h202v-202h-202v202z" />
    <glyph glyph-name="uni01DD" unicode="&#x1dd;" 
d="M122 512v90h797v6c0 122 -31.833 216.333 -95.5 283s-153.5 100 -269.5 100c-58.667 0 -120 -9.33301 -184 -28s-132.333 -47 -205 -85v183c70 28.667 137.5 50.167 202.5 64.5s127.833 21.5 188.5 21.5c174 0 310 -52.167 408 -156.5s147 -248.166 147 -431.499
c0 -178.667 -48 -321.334 -144 -428.001s-224 -160 -384 -160c-142.667 0 -255.167 48.333 -337.5 145s-123.5 228.667 -123.5 396zM306 459c0 -108 24.832 -190.333 74.499 -247s119.834 -85 210.501 -85c88.667 0 161.667 29.333 219 88s91.333 140 102 244h-606z" />
    <glyph glyph-name="uni01DE" unicode="&#x1de;" 
d="M319 1746h203v-203h-203v203zM711 1746h202v-203h-202v203zM317 1952h598v-148h-598v148zM616 1315l-213 -764h426zM494 1493h245l457 -1493h-209l-110 389h-523l-108 -389h-209z" />
    <glyph glyph-name="uni01DF" unicode="&#x1df;" 
d="M117 1842h998v-148h-998v148zM702 563h-61.001c-107.333 0 -188.166 -18.833 -242.499 -56.5s-81.5 -93.834 -81.5 -168.501c0 -67.333 20.333 -119.666 61 -156.999s97 -56 169 -56c101.333 0 181 35.167 239 105.5s87.333 167.5 88 291.5v41h-172zM1059 639
l-0.000976562 -638.999h-185v166c-39.333 -66.667 -88.833 -115.834 -148.5 -147.501s-132.167 -47.5 -217.5 -47.5c-114 0 -205 32.167 -273 96.5s-102 150.5 -102 258.5c0 124.667 41.833 219.334 125.5 284.001s206.5 97 368.5 97h247v29
c-0.666992 89.333 -23.334 154.166 -68.001 194.499s-116 60.5 -214 60.5c-62.667 0 -126 -9 -190 -27s-126.333 -44.333 -187 -79v184c68 26 133.167 45.5 195.5 58.5s122.833 19.5 181.5 19.5c92.667 0 171.834 -13.667 237.501 -41s118.834 -68.333 159.501 -123
c25.333 -33.333 43.333 -74.5 54 -123.5s16 -122.5 16 -220.5zM318.998 1552h203v-202h-203v202zM710.998 1552h202v-202h-202v202z" />
    <glyph glyph-name="uni01E0" unicode="&#x1e0;" 
d="M317 1952h598v-148h-598v148zM513 1749h205v-205h-205v205zM616 1315l-213 -764h426zM494 1493h245l457 -1493h-209l-110 389h-523l-108 -389h-209z" />
    <glyph glyph-name="uni01E1" unicode="&#x1e1;" 
d="M117 1842h998v-148h-998v148zM513 1552h205v-204h-205v204zM702 563h-61.001c-107.333 0 -188.166 -18.833 -242.499 -56.5s-81.5 -93.834 -81.5 -168.501c0 -67.333 20.333 -119.666 61 -156.999s97 -56 169 -56c101.333 0 181 35.167 239 105.5s87.333 167.5 88 291.5
v41h-172zM1059 639l-0.000976562 -638.999h-185v166c-39.333 -66.667 -88.833 -115.834 -148.5 -147.501s-132.167 -47.5 -217.5 -47.5c-114 0 -205 32.167 -273 96.5s-102 150.5 -102 258.5c0 124.667 41.833 219.334 125.5 284.001s206.5 97 368.5 97h247v29
c-0.666992 89.333 -23.334 154.166 -68.001 194.499s-116 60.5 -214 60.5c-62.667 0 -126 -9 -190 -27s-126.333 -44.333 -187 -79v184c68 26 133.167 45.5 195.5 58.5s122.833 19.5 181.5 19.5c92.667 0 171.834 -13.667 237.501 -41s118.834 -68.333 159.501 -123
c25.333 -33.333 43.333 -74.5 54 -123.5s16 -122.5 16 -220.5z" />
    <glyph glyph-name="uni01E2" unicode="&#x1e2;" 
d="M487 1840h598v-148h-598v148zM1161 1493v-170h-338v-442h307v-170h-307v-541h357v-170h-543v383h-352l-101 -383h-184l410 1493h751zM530 1323l-202 -772h309v772h-107z" />
    <glyph glyph-name="uni01E3" unicode="&#x1e3;" 
d="M317 1526h598v-148h-598v148zM543 442v71.999h-49c-112.667 0 -189 -15 -229 -45s-60 -82.667 -60 -158c0 -59.333 14.833 -105.166 44.5 -137.499s72.167 -48.5 127.5 -48.5c61.333 0 104.333 22.167 129 66.5s37 127.833 37 250.5zM1036 656.999v52
c0 100.667 -12.833 173.167 -38.5 217.5s-67.5 66.5 -125.5 66.5s-99.667 -22.667 -125 -68s-38 -120.333 -38 -225v-43h327zM1200 513.999l-491.001 0.000976562c-0.666992 -10 -1.16699 -20.833 -1.5 -32.5s-0.5 -28.834 -0.5 -51.501c0 -107.333 16.833 -185 50.5 -233
s87.834 -72 162.501 -72c52.667 0 100.5 8.5 143.5 25.5s81.167 42.5 114.5 76.5v-172c-36.667 -27.333 -77 -48.166 -121 -62.499s-89.667 -21.5 -137 -21.5c-73.333 0 -134.833 13.667 -184.5 41s-85.167 67 -106.5 119c-26 -53.333 -61.167 -93.333 -105.5 -120
s-98.833 -40 -163.5 -40c-104 0 -183.167 28.667 -237.5 86s-81.5 140.666 -81.5 249.999c0 114 33.333 200.833 100 260.5s163.667 89.5 291 89.5h117v88c0 80 -16.5 141.333 -49.5 184s-80.833 64 -143.5 64c-37.333 0 -78 -7.16699 -122 -21.5s-86.667 -34.5 -128 -60.5
v168c51.333 23.333 99 40.5 143 51.5s86 16.5 126 16.5c60.667 0 111.667 -10.5 153 -31.5s74.333 -52.833 99 -95.5c22 40.667 55 72 99 94s95.667 33 155 33c116 0 198.167 -39.5 246.5 -118.5s72.5 -220.5 72.5 -424.5v-90z" />
    <glyph glyph-name="Gcaron" unicode="&#x1e6;" 
d="M522 1635l-211 266h140l165 -178l166 178h140l-211 -266h-189zM1104 123c-54 -50 -114.833 -87.833 -182.5 -113.5s-140.834 -38.5 -219.501 -38.5c-189.333 0 -336.666 67.833 -441.999 203.5s-158 325.834 -158 570.501c0 244 53.333 434.167 160 570.5
s255 204.5 445 204.5c62.667 0 122.667 -8.83301 180 -26.5s112.666 -44.5 165.999 -80.5v-207c-54 51.333 -109.333 89.166 -166 113.499s-116.667 36.5 -180 36.5c-131.333 0 -229.833 -50.833 -295.5 -152.5s-98.5 -254.5 -98.5 -458.5
c0 -207.333 31.833 -360.833 95.5 -460.5s161.5 -149.5 293.5 -149.5c44.667 0 83.834 5.16699 117.501 15.5s64.167 26.5 91.5 48.5v401h-217v166h410v-643z" />
    <glyph glyph-name="gcaron" unicode="&#x1e7;" 
d="M543 1262l-246 376h139l180 -245l181 245h139l-246 -376h-147zM858 569c0 138 -22.501 242.833 -67.501 314.5s-110.5 107.5 -196.5 107.5c-90 0 -158.667 -35.833 -206 -107.5s-71 -176.5 -71 -314.5s23.833 -243.167 71.5 -315.5s116.834 -108.5 207.501 -108.5
c84.667 0 149.5 36.333 194.5 109s67.5 177.667 67.5 315zM1042 72c0 -168 -39.665 -295.331 -118.998 -381.998s-196 -130 -350 -130c-50.667 0 -103.667 4.66699 -159 14s-110.666 23 -165.999 41v182c65.333 -30.667 124.666 -53.334 177.999 -68.001
s102.333 -22 147 -22c99.333 0 171.666 27 216.999 81s68 139.667 68 257v8v125c-29.333 -62.667 -69.333 -109.334 -120 -140.001s-112.334 -46 -185.001 -46c-130.667 0 -235 52.333 -313 157s-117 244.667 -117 420c0 176 39 316.333 117 421s182.333 157 313 157
c72 0 133 -14.333 183 -43s90.667 -73 122 -133v145h184v-1044z" />
    <glyph glyph-name="uni01E8" unicode="&#x1e8;" 
d="M522 1635l-211 266h140l165 -178l166 178h140l-211 -266h-189zM137 1493h203v-664l631 664h237l-581 -610l598 -883h-244l-487 748l-154 -164v-584h-203v1493z" />
    <glyph glyph-name="uni01E9" unicode="&#x1e9;" 
d="M522 1635l-211 266h140l165 -178l166 178h140l-211 -266h-189zM236 1556h190v-901l483 465h224l-441 -422l510 -698h-225l-414 578l-137 -129v-449h-190v1556z" />
    <glyph glyph-name="uni01EA" unicode="&#x1ea;" 
d="M556 -15h118.997c-30 -40.667 -52.167 -75.667 -66.5 -105s-21.5 -54.333 -21.5 -75c0 -30.667 9.16699 -53.667 27.5 -69s45.5 -23 81.5 -23c21.333 0 42.333 2.5 63 7.5s41.334 12.5 62.001 22.5v-133c-25.333 -6.66699 -49.333 -11.667 -72 -15s-44 -5 -64 -5
c-81.333 0 -141.166 14.5 -179.499 43.5s-57.5 74.5 -57.5 136.5c0 32 8.83301 65.5 26.5 100.5s44.834 73.167 81.501 114.5zM904.997 745c0 219.333 -22.5 376 -67.5 470s-118.833 141 -221.5 141c-102 0 -175.5 -47 -220.5 -141s-67.5 -250.667 -67.5 -470
c0 -218.667 22.5 -375 67.5 -469s118.5 -141 220.5 -141c102.667 0 176.5 46.833 221.5 140.5s67.5 250.167 67.5 469.5zM1116 745c0 -260 -41.167 -453.999 -123.5 -581.999s-207.833 -192 -376.5 -192s-294 63.667 -376 191s-123 321.666 -123 582.999
c0 260.667 41.167 455 123.5 583s207.5 192 375.5 192c168.667 0 294.167 -64 376.5 -192s123.5 -322.333 123.5 -583z" />
    <glyph glyph-name="uni01EB" unicode="&#x1eb;" 
d="M556 -15h118.997c-30 -40.667 -52.167 -75.667 -66.5 -105s-21.5 -54.333 -21.5 -75c0 -30.667 9.16699 -53.667 27.5 -69s45.5 -23 81.5 -23c21.333 0 42.333 2.5 63 7.5s41.334 12.5 62.001 22.5v-133c-25.333 -6.66699 -49.333 -11.667 -72 -15s-44 -5 -64 -5
c-81.333 0 -141.166 14.5 -179.499 43.5s-57.5 74.5 -57.5 136.5c0 32 8.83301 65.5 26.5 100.5s44.834 73.167 81.501 114.5zM615.997 991c-93.333 0 -164 -36.333 -212 -109s-72 -180.334 -72 -323.001c0 -142 24 -249.5 72 -322.5s118.667 -109.5 212 -109.5
c94 0 165 36.5 213 109.5s72 180.5 72 322.5c0 142.667 -24 250.334 -72 323.001s-119 109 -213 109zM615.997 1147c155.333 0 274.167 -50.333 356.5 -151s123.5 -246.334 123.5 -437.001c0 -191.333 -41 -337.166 -123 -437.499s-201 -150.5 -357 -150.5
c-155.333 0 -274 50.167 -356 150.5s-123 246.166 -123 437.499c0 190.667 41 336.334 123 437.001s200.667 151 356 151z" />
    <glyph glyph-name="uni01EC" unicode="&#x1ec;" 
d="M317 1840h598v-148h-598v148zM556 -15h118.997c-30 -40.667 -52.167 -75.667 -66.5 -105s-21.5 -54.333 -21.5 -75c0 -30.667 9.16699 -53.667 27.5 -69s45.5 -23 81.5 -23c21.333 0 42.333 2.5 63 7.5s41.334 12.5 62.001 22.5v-133
c-25.333 -6.66699 -49.333 -11.667 -72 -15s-44 -5 -64 -5c-81.333 0 -141.166 14.5 -179.499 43.5s-57.5 74.5 -57.5 136.5c0 32 8.83301 65.5 26.5 100.5s44.834 73.167 81.501 114.5zM904.997 745c0 219.333 -22.5 376 -67.5 470s-118.833 141 -221.5 141
c-102 0 -175.5 -47 -220.5 -141s-67.5 -250.667 -67.5 -470c0 -218.667 22.5 -375 67.5 -469s118.5 -141 220.5 -141c102.667 0 176.5 46.833 221.5 140.5s67.5 250.167 67.5 469.5zM1116 745c0 -260 -41.167 -453.999 -123.5 -581.999s-207.833 -192 -376.5 -192
s-294 63.667 -376 191s-123 321.666 -123 582.999c0 260.667 41.167 455 123.5 583s207.5 192 375.5 192c168.667 0 294.167 -64 376.5 -192s123.5 -322.333 123.5 -583z" />
    <glyph glyph-name="uni01ED" unicode="&#x1ed;" 
d="M317 1526h598v-148h-598v148zM556 -15h118.997c-30 -40.667 -52.167 -75.667 -66.5 -105s-21.5 -54.333 -21.5 -75c0 -30.667 9.16699 -53.667 27.5 -69s45.5 -23 81.5 -23c21.333 0 42.333 2.5 63 7.5s41.334 12.5 62.001 22.5v-133
c-25.333 -6.66699 -49.333 -11.667 -72 -15s-44 -5 -64 -5c-81.333 0 -141.166 14.5 -179.499 43.5s-57.5 74.5 -57.5 136.5c0 32 8.83301 65.5 26.5 100.5s44.834 73.167 81.501 114.5zM615.997 991c-93.333 0 -164 -36.333 -212 -109s-72 -180.334 -72 -323.001
c0 -142 24 -249.5 72 -322.5s118.667 -109.5 212 -109.5c94 0 165 36.5 213 109.5s72 180.5 72 322.5c0 142.667 -24 250.334 -72 323.001s-119 109 -213 109zM615.997 1147c155.333 0 274.167 -50.333 356.5 -151s123.5 -246.334 123.5 -437.001
c0 -191.333 -41 -337.166 -123 -437.499s-201 -150.5 -357 -150.5c-155.333 0 -274 50.167 -356 150.5s-123 246.166 -123 437.499c0 190.667 41 336.334 123 437.001s200.667 151 356 151z" />
    <glyph glyph-name="uni01EE" unicode="&#x1ee;" 
d="M522 1635l-211 266h140l165 -178l166 178h140l-211 -266h-189zM228 435c0 -95.333 33.334 -168 100.001 -218c66 -50 162.167 -75 288.5 -75s222.833 25 289.5 75s100 122.667 100 218c0 89.333 -30.667 158.333 -92 207c-62.667 49.333 -148.667 74 -258 74h-174v166
l370 441h-738v170h970v-168l-376 -441c69.333 0 147.333 -18.667 234 -56c65.333 -28.667 126.666 -79 183.999 -151c53.333 -69.333 80 -150 80 -242c0 -147.333 -50.667 -261.333 -152 -342s-245.333 -121 -432 -121c-194.667 0 -342.667 40.333 -444 121
s-152 194.667 -152 342h202z" />
    <glyph glyph-name="uni01EF" unicode="&#x1ef;" 
d="M543 1262l-246 376h139l180 -245l181 245h139l-246 -376h-147zM609 476c70.667 0 148.668 -18.667 234.001 -56c65.333 -28 126.666 -78.333 183.999 -151c54 -69.333 81 -150 81 -242c0 -147.333 -50.667 -261.333 -152 -342s-245.333 -121 -432 -121
c-62.667 0 -127 6 -193 18c-66.667 12.667 -135.334 31.334 -206.001 56.001v195c56 -32.667 117.333 -57.334 184 -74.001s136.334 -25 209.001 -25c126.667 0 223 25 289 75c66.667 50 100 122.667 100 218c0 88 -30.667 157 -92 207c-62 49.333 -148 74 -258 74h-174v166
l430 499h-667v147h874v-168z" />
    <glyph glyph-name="uni01F0" unicode="&#x1f0;" 
d="M578 1258l-246 376h139l180 -245l181 245h139l-246 -376h-147zM600 -20v997h-317v143h501v-1140c0 -130 -29.833 -230.167 -89.5 -300.5s-144.5 -105.5 -254.5 -105.5h-254v156h234c60 0 105 20.833 135 62.5s45 104.167 45 187.5z" />
    <glyph glyph-name="uni01F4" unicode="&#x1f4;" 
d="M762 1899h186l-229 -264h-154zM1104 123c-54 -50 -114.833 -87.833 -182.5 -113.5s-140.834 -38.5 -219.501 -38.5c-189.333 0 -336.666 67.833 -441.999 203.5s-158 325.834 -158 570.501c0 244 53.333 434.167 160 570.5s255 204.5 445 204.5
c62.667 0 122.667 -8.83301 180 -26.5s112.666 -44.5 165.999 -80.5v-207c-54 51.333 -109.333 89.166 -166 113.499s-116.667 36.5 -180 36.5c-131.333 0 -229.833 -50.833 -295.5 -152.5s-98.5 -254.5 -98.5 -458.5c0 -207.333 31.833 -360.833 95.5 -460.5
s161.5 -149.5 293.5 -149.5c44.667 0 83.834 5.16699 117.501 15.5s64.167 26.5 91.5 48.5v401h-217v166h410v-643z" />
    <glyph glyph-name="uni01F5" unicode="&#x1f5;" 
d="M756 1638h198l-325 -376h-154zM858 569c0 138 -22.501 242.833 -67.501 314.5s-110.5 107.5 -196.5 107.5c-90 0 -158.667 -35.833 -206 -107.5s-71 -176.5 -71 -314.5s23.833 -243.167 71.5 -315.5s116.834 -108.5 207.501 -108.5c84.667 0 149.5 36.333 194.5 109
s67.5 177.667 67.5 315zM1042 72c0 -168 -39.665 -295.331 -118.998 -381.998s-196 -130 -350 -130c-50.667 0 -103.667 4.66699 -159 14s-110.666 23 -165.999 41v182c65.333 -30.667 124.666 -53.334 177.999 -68.001s102.333 -22 147 -22c99.333 0 171.666 27 216.999 81
s68 139.667 68 257v8v125c-29.333 -62.667 -69.333 -109.334 -120 -140.001s-112.334 -46 -185.001 -46c-130.667 0 -235 52.333 -313 157s-117 244.667 -117 420c0 176 39 316.333 117 421s182.333 157 313 157c72 0 133 -14.333 183 -43s90.667 -73 122 -133v145h184
v-1044z" />
    <glyph glyph-name="uni01F6" unicode="&#x1f6;" 
d="M877 135c36 0 62.333 26.333 79 79c22 68 33 192 33 372v295h182v-320c0 -248.667 -34.667 -419.667 -104 -513c-38 -51.333 -101.333 -77 -190 -77c-85.333 0 -152 27.667 -200 83c-89.333 102 -134 271 -134 507v150h-299v-711h-182v1493h182v-612h299v612h183v-907
c0 -182 27.333 -319.333 82 -412c15.333 -26 38.333 -39 69 -39z" />
    <glyph glyph-name="uni01F8" unicode="&#x1f8;" 
d="M561 1899l197 -264h-154l-227 264h184zM19 1488h276l584 -1225v1225h215v-1488h-276l-584 1225v-1225h-215v1488z" />
    <glyph glyph-name="uni01F9" unicode="&#x1f9;" 
d="M477 1638l281 -376h-154l-325 376h198zM1051 694l-0.000976562 -694h-185v694c0 100.667 -17.667 174.667 -53 222s-90.666 71 -165.999 71c-86 0 -152.167 -30.5 -198.5 -91.5s-69.5 -148.5 -69.5 -262.5v-633h-184v1120h184v-168c32.667 64 77 112.5 133 145.5
s122.333 49.5 199 49.5c114 0 199.167 -37.5 255.5 -112.5s84.5 -188.5 84.5 -340.5z" />
    <glyph glyph-name="AEacute" unicode="&#x1fc;" 
d="M912 1899h186l-229 -264h-154zM1161 1493v-170h-338v-442h307v-170h-307v-541h357v-170h-543v383h-352l-101 -383h-184l410 1493h751zM530 1323l-202 -772h309v772h-107z" />
    <glyph glyph-name="aeacute" unicode="&#x1fd;" 
d="M756 1638h198l-325 -376h-154zM543 442v71.999h-49c-112.667 0 -189 -15 -229 -45s-60 -82.667 -60 -158c0 -59.333 14.833 -105.166 44.5 -137.499s72.167 -48.5 127.5 -48.5c61.333 0 104.333 22.167 129 66.5s37 127.833 37 250.5zM1036 656.999v52
c0 100.667 -12.833 173.167 -38.5 217.5s-67.5 66.5 -125.5 66.5s-99.667 -22.667 -125 -68s-38 -120.333 -38 -225v-43h327zM1200 513.999l-491.001 0.000976562c-0.666992 -10 -1.16699 -20.833 -1.5 -32.5s-0.5 -28.834 -0.5 -51.501c0 -107.333 16.833 -185 50.5 -233
s87.834 -72 162.501 -72c52.667 0 100.5 8.5 143.5 25.5s81.167 42.5 114.5 76.5v-172c-36.667 -27.333 -77 -48.166 -121 -62.499s-89.667 -21.5 -137 -21.5c-73.333 0 -134.833 13.667 -184.5 41s-85.167 67 -106.5 119c-26 -53.333 -61.167 -93.333 -105.5 -120
s-98.833 -40 -163.5 -40c-104 0 -183.167 28.667 -237.5 86s-81.5 140.666 -81.5 249.999c0 114 33.333 200.833 100 260.5s163.667 89.5 291 89.5h117v88c0 80 -16.5 141.333 -49.5 184s-80.833 64 -143.5 64c-37.333 0 -78 -7.16699 -122 -21.5s-86.667 -34.5 -128 -60.5
v168c51.333 23.333 99 40.5 143 51.5s86 16.5 126 16.5c60.667 0 111.667 -10.5 153 -31.5s74.333 -52.833 99 -95.5c22 40.667 55 72 99 94s95.667 33 155 33c116 0 198.167 -39.5 246.5 -118.5s72.5 -220.5 72.5 -424.5v-90z" />
    </font>
</defs>
</svg>
